↑↓torrent.by
Поиск
Логин:  Регистрация
Пароль:

Дом Дракона / House of the Dragon [01-02x01-13 из 18] (2022-2024) WEB-DLRip | Кравец-Рекордз

download Скачать торрент-файл   magnet Магнитная ссылка Размер: 11.49 GB Раздают: 0 Качают: 1 Добавлен: 2024-07-10 17:00
Пиры будут получены из сети DHT
Последний сидер был замечен 2024-07-10 17:00
Информация о фильме Название: Дом Дракона Оригинальное название: House of the Dragon Год выпуска: 2022-2024 Жанр: фэнтези, боевик, драма, мелодрама Режиссер: Мигель Сапочник, Грег Яйтанс, Клер Килнер В ролях: Пэдди Консидайн, Оливия Кук, Эмма Д’Арси, Мэтт Смит, Стив Туссэн, Ив Бест, Рис Иванс, Соноя Мидзуно, Фабьен Франкель, Милли Олкок и другие О фильме: «Дом дракона» — мегаожидаемый приквел и одновременно спин-офф фэнтези «Игра престолов», главного хита не только канала HBO, но и всего современного ТВ. Сериал долго прокладывал свой путь на экраны и бился с четырьмя другими заявками, а по пути обрастал огромным бюджетом. Это дало его создателям Райану Кондалу («Колония») и Мигелю Сапочнику (эпизод материнского сериала «Битва бастардов») возможность снимать на натуре, вложиться в богатый реквизит и декорации, продумать каждую мельчайшую деталь, разработать уникальные дизайны 17 новых свирепых драконов, создать масштабные боевые сцены и экшен голливудского масштаба, пригласить на главные роли таких харизматиков, как Пэдди Консидайн и Мэтт Смит. На «Дом дракона» возложена гигантская ответственность — он должен не только окупиться, оправдать ожидания преданных фанатов саги и, возможно, исправить ошибки прародителя. От его успеха еще и зависит быть ли настоящей франшизе по миру «Престолов» по примеру Marvel и «Звездных войн» или нет. Когда старый король Джейхэйрис Таргариен (Майкл Картер), правивший Вестеросом больше 60 лет в мире и процветании, понял, что его конец близок, а сыновья, которым он мог бы передать трон, погибли, он созвал Великий Совет. Престол тогда унаследовал мудрый и великодушный Визэрис I (Пэдди Консидайн), сумевший сохранить в королевстве благополучие. Через несколько лет и он столкнулся с той же проблемой, что и предок, — отсутствие наследника мужского пола. В Малом Совете начались роптания, а хитроумный и скользкий десница Отто Хайтауэр (Рис Иванс) стал подталкивать правителя к принятию непростого решения. Кандидатов на трон после его смерти оказалось трое: старшая дочь Рэйнира (Милли Олкок), которую, впрочем, никто из великих лордов не рассматривал всерьез из-за того, что она женщина. Вторым претендентом прослыл амбициозный, но вспыльчивый и жестокий брат короля принц Дэймон (Мэтт Смит). А третьим стал и вовсе пока нерожденный сын в утробе королевы Эйммы Аррен (Сиан Брук). В ходе тяжелых родов и мать, и дитя гибнут, и скорбящий Визэрис делает выбор в пользу Рэйниры. Вот только у его приближенных свои мысли на этот счет: никто из них не желает уступать трон женщине, и в темных коридорах дворца уже зреет вероломный план, способный привести к гражданской войне и разрушить великую валирийскую династию… Страна: США Студия: Good Banana, Home Box Office (HBO) Продолжительность: ~01:00:00 серия Перевод: Профессиональный (дублированный) Кравец-Рекордз по заказу Amedia Файл Качество: WEB-DLRip Формат: AVI Видео: 704x352 at 23.976 fps, XviD, ~1700 kbps avg Аудио: Russian: 48 kHz, AC3, 3/2 (L,C,R,l,r) + LFE ch, ~384 kbps avg |Дубляж, Кравец-Рекордз по заказу Amedia| Субтитры: Russian (Forced) ***Примечание: Без рекламы
[+] Список серий01. Наследники дракона / The Heirs of the Dragon 02. Порочный принц / The Rogue Prince 03. Второй своего имени / Second of His Name 04. Король Узкого моря / King of the Narrow Sea 05. Мы путь осветим / We Light the Way 06. Принцесса и королева / The Princess and the Queen 07. Дрифтмарк / Driftmark 08. Лорд Приливов / The Lord of the Tides 09. Зелёный совет / The Green Council 10. Чёрная королева / The Black Queen
[+] Скриншоты
[+] MediaInfoОбщее Полное имя : House.of.the.Dragon.S01E02.avi Формат : AVI Формат/Информация : Audio Video Interleave Размер файла : 799 Мбайт Продолжительность : 53 м. 51 с. Общий поток : 2 074 Кбит/сек Программа кодирования : VirtualDubMod 1.5.10.3 (build 2550/release) Библиотека кодирования : VirtualDubMod build 2550/release Видео Идентификатор : 0 Формат : MPEG-4 Visual Профиль формата : Advanced Simple@L5 Настройки формата : BVOP1 / Custom Matrix Параметр BVOP формата : 1 Параметр QPel формата : Нет Параметр GMC формата : Без точки перехода Параметр матрицы формата : Выборочная Идентификатор кодека : XVID Идентификатор кодека/Подсказка : XviD Продолжительность : 53 м. 51 с. Битрейт : 1 681 Кбит/сек Ширина : 704 пикселя Высота : 352 пикселя Соотношение сторон : 2,000 Частота кадров : 23,976 (24000/1001) кадра/сек Цветовое пространство : YUV Субдискретизация насыщенности : 4:2:0 Битовая глубина : 8 бит Тип развёртки : Прогрессивная Метод сжатия : С потерями Бит/(Пиксели*Кадры) : 0.283 Размер потока : 648 Мбайт (81%) Библиотека кодирования : XviD 69 Аудио Идентификатор : 1 Формат : AC-3 Формат/Информация : Audio Coding 3 Коммерческое название : Dolby Digital Идентификатор кодека : 2000 Продолжительность : 53 м. 51 с. Вид битрейта : Постоянный Битрейт : 384 Кбит/сек Каналы : 6 каналов Channel layout : L R C LFE Ls Rs Частота : 48,0 КГц Частота кадров : 31,250 кадров/сек (1536 SPF) Метод сжатия : С потерями Размер потока : 148 Мбайт (19%) Выравнивание : Разделение по промежуткам Продолжительность промежутка : 42 мс. (1,00 видеокадр) Время предзагрузки промежутка : 500 мс. Service kind : Complete Main

Всего файлов в раздаче: 23 
S01\House.of.the.Dragon.S01E01.avi982.22 MB
S01\House.of.the.Dragon.S01E01.srt2.42 kB
S01\House.of.the.Dragon.S01E02.avi799.02 MB
S01\House.of.the.Dragon.S01E02.srt2.15 kB
S01\House.of.the.Dragon.S01E03.avi939.17 MB
S01\House.of.the.Dragon.S01E04.avi884.83 MB
S01\House.of.the.Dragon.S01E04.srt2.08 kB
S01\House.of.the.Dragon.S01E05.avi849.29 MB
S01\House.of.the.Dragon.S01E05.srt1.32 kB
S01\House.of.the.Dragon.S01E06.avi955.44 MB
Показать все файлы

Похожие раздачи по запросу - Дом
Вчера magnet Дом-ловушка / Accused (2023) BDRip от DoMiNo & селезень | D | Paragraph Media 1.38 GB ↑ 0 ↓ 0
Вчера magnet Дом-ловушка / Accused (2023) BDRip 1080p от Generalfilm | D 2.73 GB ↑ 0 ↓ 0
Вчера magnet Дом-ловушка / Accused (2023) BDRip 1080p от DoMiNo & селезень | D | Paragraph Media 4.56 GB ↑ 0 ↓ 0
Вчера magnet Дом-ловушка / Accused (2023) BDRip-AVC от New-Team | D 1.57 GB ↑ 0 ↓ 0
Вчера magnet Милый дом / Seuwiteuhom / Sweet Home [S01] (2020) WEB-DL 1080p | TVShows, LostFilm 30.67 GB ↑ 0 ↓ 2
Вчера magnet Дом-ловушка / Accused (2023) BDRip-AVC от DoMiNo & селезень | D | Paragraph Media 1.41 GB ↑ 0 ↓ 2
2024-07-20 magnet Дом-ловушка / Accused (2023) BDRip 1080p от MegaPeer | D 6.55 GB ↑ 0 ↓ 4

Комментарии


Зарегистрируйтесь чтобы добавить комментарий
Торрент клиент
byTorrent - программа для загрузки торрент-файлов.

Скачать byTorrent.exe (1,5 МБ)

Скачать byTorrent.zip (0,6 МБ)

Поддержи torrent.by
российских рублей
(300 российских рублей это 4$)

Обратная связь rss

End game ©