↑↓torrent.by
Поиск
Логин:  Регистрация
Пароль:

Понтипул / Pontypool (2008) BDRip 1080p | P, A

download Скачать торрент-файл   magnet Магнитная ссылка Размер: 9.18 GB Добавлен: 2024-07-10 17:00
Пиры будут получены из сети DHT
Последний сидер был замечен 2024-07-10 19:18
Информация о фильме Название: Понтипул Оригинальное название: Pontypool Год выхода: 2008 Жанр: Ужасы, триллер Режиссер: Брюс МакДональд В ролях: Стивен Макхэтти, Лиза Хоул, Джорджина Рейли, Хрант Альянак, Рик Робертс, Дэниэл Фазерс, Беатриз Юсте, Тони Бёрджесс, Бойд Бэнкс, Ханна Флеминг О фильме: Грант, Сидни и Лорэл-Энн работают в городке Понтипул на небольшой радиостанции, которая располагается в подвале старой церкви. Одним ненастным зимним утром на радио начинают поступать обрывки противоречивой информации о странных событиях, которые творятся в городе. То, что сначала кажется уличными беспорядками, на самом деле оказывается эпидемией вируса, превратившего горожан в обезумевшую толпу. Релиз группа: НЕВЬЯНСК Страна: Канада Студия: Ponty Up Pictures, Shadow Shows Продолжительность: 01:36:32 Перевод 1: Профессиональный (многоголосый закадровый) kinoa Перевод 2: Авторский (одноголосый закадровый) Антон Алексеев Перевод 3: Одноголосый (закадровый) Михаил Яроцкий Файл Кодек: H.264 Качество: BDRip 1080p Видео: High@L4.1, 1918x816, 11000 Кбит/с, 23.976 fps Аудио#1: Русский (48 kHz, AC3, 2 ch, 192 Кбит/с) kinoa Аудио#2: Русский (48 kHz, AC3, 6 ch, 448 Кбит/с) Алексеев Аудио#3: Русский (48 kHz, AC3, 6 ch, 448 Кбит/с) Яроцкий Аудио#4: Английский (48 kHz, DTS, 6 ch, 1509 Кбит/с) Субтитры: Русские, английские
[+] MIGeneral Unique ID : 159725882653360978191387305700219404236 (0x782A160608D426BB7493C34A8BEBBFCC) Complete name : D:ТоррентPontypool.2008.BDRip.1080p.Infectant.mkv Format : Matroska Format version : Version 4 File size : 9.18 GiB Duration : 1 h 36 min Overall bit rate : 13.6 Mb/s Frame rate : 23.976 FPS Movie name : Pontypool.2008.BDRip.1080p.Infectant Encoded date : 2024-07-09 07:25:10 UTC Writing application : mkvmerge v84.0 ('Sleeper') 64-bit Writing library : libebml v1.4.5 + libmatroska v1.7.1 Video ID : 1 Format : AVC Format/Info : Advanced Video Codec Format profile : High@L4.1 Format settings : CABAC / 5 Ref Frames Format settings, CABAC : Yes Format settings, Reference fra : 5 frames Codec ID : V_MPEG4/ISO/AVC Duration : 1 h 36 min Bit rate : 11.0 Mb/s Width : 1 918 pixels Height : 816 pixels Display aspect ratio : 2.35:1 Frame rate mode : Constant Frame rate : 23.976 (24000/1001) FPS Color space : YUV Chroma subsampling : 4:2:0 Bit depth : 8 bits Scan type : Progressive Bits/(Pixel*Frame) : 0.293 Stream size : 7.41 GiB (81%) Title : Pontypool (2008) Writing library : x264 core 157 r2958 57baac4 Encoding settings : cabac=1 / ref=5 / deblock=1:-1:-1 / analyse=0x3:0x113 / me=umh / subme=11 / psy=1 / psy_rd=1.00:0.15 / mixed_ref=1 / me_range=32 / chroma_me=1 / trellis=2 / 8x8dct=1 / cqm=0 / deadzone=21,11 / fast_pskip=0 / chroma_qp_offset=-3 / threads=18 / lookahead_threads=4 / sliced_threads=0 / nr=0 / decimate=1 / interlaced=0 / bluray_compat=0 / constrained_intra=0 / bframes=12 / b_pyramid=2 / b_adapt=2 / b_bias=0 / direct=3 / weightb=1 / open_gop=0 / weightp=2 / keyint=240 / keyint_min=24 / scenecut=40 / intra_refresh=0 / rc_lookahead=60 / rc=2pass / mbtree=1 / bitrate=11000 / ratetol=1.0 / qcomp=0.60 / qpmin=10 / qpmax=51 / qpstep=5 / cplxblur=20.0 / qblur=0.5 / vbv_maxrate=24000 / vbv_bufsize=24000 / nal_hrd=none / filler=0 / ip_ratio=1.40 / aq=1:1.00 Default : Yes Forced : No Color range : Limited Color primaries : BT.709 Transfer characteristics : BT.709 Matrix coefficients : BT.709 Audio #1 ID : 2 Format : AC-3 Format/Info : Audio Coding 3 Commercial name : Dolby Digital Codec ID : A_AC3 Duration : 1 h 36 min Bit rate mode : Constant Bit rate : 192 kb/s Channel(s) : 2 channels Channel layout : L R Sampling rate : 48.0 kHz Frame rate : 31.250 FPS (1536 SPF) Compression mode : Lossy Stream size : 133 MiB (1%) Title : MVO kinoa Language : Russian Service kind : Complete Main Default : Yes Forced : No Dialog Normalization : -31 dB dialnorm_Average : -31 dB dialnorm_Minimum : -31 dB dialnorm_Maximum : -31 dB Audio #2 ID : 3 Format : AC-3 Format/Info : Audio Coding 3 Commercial name : Dolby Digital Codec ID : A_AC3 Duration : 1 h 36 min Bit rate mode : Constant Bit rate : 448 kb/s Channel(s) : 6 channels Channel layout : L R C LFE Ls Rs Sampling rate : 48.0 kHz Frame rate : 31.250 FPS (1536 SPF) Compression mode : Lossy Stream size : 309 MiB (3%) Title : AVO Антон Алексеев Language : Russian Service kind : Complete Main Default : No Forced : No Dialog Normalization : -27 dB compr : 0.53 dB cmixlev : -3.0 dB surmixlev : -3 dB mixlevel : 285 dB roomtyp : Small dialnorm_Average : -27 dB dialnorm_Minimum : -27 dB dialnorm_Maximum : -27 dB Audio #3 ID : 4 Format : AC-3 Format/Info : Audio Coding 3 Commercial name : Dolby Digital Codec ID : A_AC3 Duration : 1 h 36 min Bit rate mode : Constant Bit rate : 448 kb/s Channel(s) : 6 channels Channel layout : L R C LFE Ls Rs Sampling rate : 48.0 kHz Frame rate : 31.250 FPS (1536 SPF) Compression mode : Lossy Stream size : 309 MiB (3%) Title : VO Михаил Яроцкий Language : Russian Service kind : Complete Main Default : No Forced : No Dialog Normalization : -31 dB cmixlev : -4.5 dB surmixlev : -6 dB dialnorm_Average : -31 dB dialnorm_Minimum : -31 dB dialnorm_Maximum : -31 dB Audio #4 ID : 5 Format : DTS Format/Info : Digital Theater Systems Codec ID : A_DTS Duration : 1 h 36 min Bit rate mode : Constant Bit rate : 1 536 kb/s Channel(s) : 6 channels Channel layout : C L R Ls Rs LFE Sampling rate : 48.0 kHz Frame rate : 93.750 FPS (512 SPF) Bit depth : 16 bits Compression mode : Lossy Stream size : 1.04 GiB (11%) Language : English Default : No Forced : No Text #1 ID : 6 Format : UTF-8 Codec ID : S_TEXT/UTF8 Codec ID/Info : UTF-8 Plain Text Duration : 1 h 35 min Bit rate : 129 b/s Frame rate : 0.236 FPS Count of elements : 1357 Stream size : 90.5 KiB (0%) Title : nofate Language : Russian Default : No Forced : No Text #2 ID : 7 Format : UTF-8 Codec ID : S_TEXT/UTF8 Codec ID/Info : UTF-8 Plain Text Duration : 1 h 35 min Bit rate : 78 b/s Frame rate : 0.337 FPS Count of elements : 1935 Stream size : 55.2 KiB (0%) Language : English Default : No Forced : No Menu 00:00:00.000 : Chapter 01 00:08:42.939 : Chapter 02 00:15:41.565 : Chapter 03 00:24:44.483 : Chapter 04 00:31:20.295 : Chapter 05 00:39:48.386 : Chapter 06 00:48:10.095 : Chapter 07 00:54:38.483 : Chapter 08 01:04:18.271 : Chapter 09 01:13:27.027 : Chapter 10 01:19:58.210 : Chapter 11 01:25:55.150 : Chapter 12
[+] Скриншоты
[+] Доп. информацияРоли озвучивали: Иван Кузнецов, Маргарита Корш, Антонина Лазаревская, Юрий Катарманов, Алексей Никитин, Вадим Чернобельский

Всего файлов в раздаче: 1 
Pontypool.2008.BDRip.1080p.Infectant.mkv9.18 GB

Похожие раздачи по запросу - Понтипул
2024-07-02 magnet Понтипул / Pontypool (2008) BDRip-AVC | P, A 2.36 GB ↑ 0 ↓ 0

Комментарии


Зарегистрируйтесь чтобы добавить комментарий
Торрент клиент
byTorrent - программа для загрузки торрент-файлов.

Скачать byTorrent.exe (1,5 МБ)

Скачать byTorrent.zip (0,6 МБ)

Поддержи torrent.by
российских рублей
(300 российских рублей это 4$)

Обратная связь rss

End game ©