↑↓torrent.by
Поиск
Логин:  Регистрация
Пароль:

Пацаны / The Boys [04x01-06 из 08] (2024) WEB-DL 720p | D, P, P2

download Скачать торрент-файл   magnet Магнитная ссылка Размер: 14.80 GB Добавлен: 2024-07-10 17:00
Пиры будут получены из сети DHT
Последний сидер был замечен 2024-07-15 10:38
Название: Пацаны Оригинальное название: The Boys Год выхода: 2024 Производство: США / Amazon Studios, Original Film, Point Grey Pictures Жанр: Фантастика, боевик, комедия, криминал Перевод: Дублированный (неофициальный), профессиональный многоголосый, профессиональный двухголосый Продолжительность: 06х ~01:00:00 Режиссёры: Филип Сгриккиа, Джулиан Холмс В ролях: Карл Урбан, Джек Куэйд, Энтони Старр, Эрин Мориарти, Джесси Ашер, Лаз Алонсо, Чейс Кроуфорд, Томер Капон, Карен Фукухара, Нэйтан Митчелл Описание: Действие сериала разворачивается в мире, где существуют супергерои. Именно они являются настоящими звёздами. Их все знают и обожают. Но за идеальным фасадом скрывается гораздо более мрачный мир наркотиков и секса, а большинство героев - в жизни не самые приятные люди. Для контроля за супергероями ЦРУ создаёт специальный отряд, неофициально известный как «Пацаны», суровые члены которого всегда готовы поставить зазнавшегося героя на место самым жестоким способом. Формат: MKV Качество: WEB-DL 720p Видео: MPEG4 AVC / ~2728 kbps / 1248 x 520 / 0.175 Бит/(Пиксели*Кадры) / 23.976 fps Аудио 01: AC-3, 2 ch, 384 kbps | Русский, DVO | Кубик в Кубе | Серии 1-6 Аудио 02: AC-3, 2 ch, 384 kbps | Русский, MVO | LostFilm | Серии 1-6 Аудио 03: AC-3, 2 ch, 384 kbps | Русский, MVO | TVShows | Серии 1-6 Аудио 04: AC-3, 2-6 ch, 192-384 kbps | Русский, MVO | Jaskier | Серии 1-5 Аудио 05: AC-3, 2 ch, 384 kbps | Русский, MVO | HDRezka Studio | Серии 1-6 Аудио 06: AC-3, 2 ch, 192 kbps | Русский, DUB | Red Head Sound | Серии 1-6 Аудио 07: E-AC-3, 6 ch, 640 kbps | Английский | Субтитры: Русские (Forced, Full), Английские (Full, SDH)
[+] MediainfoОбщее Уникальный идентификатор : 61930797240690408923985411540077151741 (0x2E97700C5B8BA607D8A374AD2A6A85FD) Полное имя : E:/Сериалы/Сериалы/ПацаныThe.Boys.S04.WEBDL.720pThe.Boys.S04E01.WEBDL.720p.mkv Формат : Matroska Версия формата : Version 4 Размер файла : 2,06 Гбайт Продолжительность : 1 ч. 5 мин. Общий битрейт : 4 523 Кбит/сек Частота кадров : 23,976 кадра/сек Дата кодирования : 2024-06-15 18:40:32 UTC Программа кодирования : mkvmerge v85.0 ('Shame For You') 64-bit Библиотека кодирования : libebml v1.4.5 + libmatroska v1.7.1 Видео Идентификатор : 1 Формат : AVC Формат/Информация : Advanced Video Codec Профиль формата : High@L3.1 Настройки формата : CABAC / 4 Ref Frames Параметр CABAC формата : Да Параметр RefFrames формата : 4 кадра Идентификатор кодека : V_MPEG4/ISO/AVC Продолжительность : 1 ч. 5 мин. Вид битрейта : Постоянный Битрейт : 2 728 Кбит/сек Номинальный битрейт : 4 000 Кбит/сек Ширина : 1 248 пикселей Высота : 520 пикселей Соотношение сторон дисплея : 2,40:1 Режим частоты кадров : Постоянный Частота кадров : 23,976 (24000/1001) кадра/сек Цветовое пространство : YUV Цветовая субдискретизация : 4:2:0 Битовая глубина : 8 бит Тип развёртки : Прогрессивная Бит/(Пиксели*Кадры) : 0.175 Размер потока : 1,24 Гбайт (60%) Язык : Английский (US) По умолчанию : Да Принудительно : Нет Цветовой диапазон : Limited Основные цвета : BT.709 Характеристики трансфера : BT.709 Коэффициенты матрицы : BT.709 Аудио #1 Идентификатор : 2 Формат : AC-3 Формат/Информация : Audio Coding 3 Коммерческое название : Dolby Digital Идентификатор кодека : A_AC3 Продолжительность : 1 ч. 5 мин. Вид битрейта : Постоянный Битрейт : 384 Кбит/сек Канал(-ы) : 2 канала Расположение каналов : L R Частота дискретизации : 48,0 КГц Частота кадров : 31,250 кадров/сек (1536 SPF) Метод сжатия : С потерями Размер потока : 179 Мбайт (8%) Заголовок : KvK Язык : Русский Вид сервиса : Complete Main По умолчанию : Да Принудительно : Нет Нормализация звука речи : -22 dB compr : -0.28 dB ltrtcmixlev : -3.0 dB ltrtsurmixlev : -3.0 dB lorocmixlev : -3.0 dB lorosurmixlev : -3.0 dB dialnorm_Average : -22 dB dialnorm_Minimum : -22 dB dialnorm_Maximum : -22 dB Аудио #2 Идентификатор : 3 Формат : AC-3 Формат/Информация : Audio Coding 3 Коммерческое название : Dolby Digital Идентификатор кодека : A_AC3 Продолжительность : 1 ч. 5 мин. Вид битрейта : Постоянный Битрейт : 384 Кбит/сек Канал(-ы) : 6 каналов Расположение каналов : L R C LFE Ls Rs Частота дискретизации : 48,0 КГц Частота кадров : 31,250 кадров/сек (1536 SPF) Метод сжатия : С потерями Размер потока : 179 Мбайт (8%) Заголовок : Jas Язык : Русский Вид сервиса : Complete Main По умолчанию : Нет Принудительно : Нет Нормализация звука речи : -20 dB compr : -0.28 dB cmixlev : -3.0 dB surmixlev : -3 dB dmixmod : Lo/Ro ltrtcmixlev : -3.0 dB ltrtsurmixlev : -3.0 dB lorocmixlev : -3.0 dB lorosurmixlev : -3.0 dB dialnorm_Average : -20 dB dialnorm_Minimum : -20 dB dialnorm_Maximum : -20 dB Аудио #3 Идентификатор : 4 Формат : AC-3 Формат/Информация : Audio Coding 3 Коммерческое название : Dolby Digital Идентификатор кодека : A_AC3 Продолжительность : 1 ч. 5 мин. Вид битрейта : Постоянный Битрейт : 384 Кбит/сек Канал(-ы) : 2 канала Расположение каналов : L R Частота дискретизации : 48,0 КГц Частота кадров : 31,250 кадров/сек (1536 SPF) Метод сжатия : С потерями Размер потока : 179 Мбайт (8%) Заголовок : HDr Язык : Русский Вид сервиса : Complete Main По умолчанию : Нет Принудительно : Нет Нормализация звука речи : -23 dB compr : -0.28 dB ltrtcmixlev : -3.0 dB ltrtsurmixlev : -3.0 dB lorocmixlev : -3.0 dB lorosurmixlev : -3.0 dB dialnorm_Average : -23 dB dialnorm_Minimum : -23 dB dialnorm_Maximum : -23 dB Аудио #4 Идентификатор : 5 Формат : E-AC-3 Формат/Информация : Enhanced AC-3 Коммерческое название : Dolby Digital Plus Идентификатор кодека : A_EAC3 Продолжительность : 1 ч. 5 мин. Вид битрейта : Постоянный Битрейт : 640 Кбит/сек Канал(-ы) : 6 каналов Расположение каналов : L R C LFE Ls Rs Частота дискретизации : 48,0 КГц Частота кадров : 31,250 кадров/сек (1536 SPF) Метод сжатия : С потерями Размер потока : 298 Мбайт (14%) Заголовок : Eng Язык : Английский (US) Вид сервиса : Complete Main По умолчанию : Нет Принудительно : Нет Нормализация звука речи : -31 dB compr : -0.28 dB dialnorm_Average : -31 dB dialnorm_Minimum : -31 dB dialnorm_Maximum : -31 dB Текст #1 Идентификатор : 6 Формат : UTF-8 Идентификатор кодека : S_TEXT/UTF8 Идентификатор кодека/Информация : UTF-8 Plain Text Продолжительность : 58 мин. 4 с. Битрейт : 4 бит/сек Частота кадров : 0,010 кадр/сек Число элементов : 35 Размер потока : 1,71 КиБ (0%) Заголовок : Forc Язык : Русский По умолчанию : Да Принудительно : Нет Текст #2 Идентификатор : 7 Формат : UTF-8 Идентификатор кодека : S_TEXT/UTF8 Идентификатор кодека/Информация : UTF-8 Plain Text Продолжительность : 1 ч. 1 мин. Битрейт : 100 бит/сек Частота кадров : 0,226 кадр/сек Число элементов : 830 Размер потока : 45,3 КиБ (0%) Заголовок : Rus Язык : Русский (RU) По умолчанию : Нет Принудительно : Нет Текст #3 Идентификатор : 8 Формат : UTF-8 Идентификатор кодека : S_TEXT/UTF8 Идентификатор кодека/Информация : UTF-8 Plain Text Продолжительность : 1 ч. 1 мин. Битрейт : 69 бит/сек Частота кадров : 0,242 кадр/сек Число элементов : 888 Размер потока : 31,1 КиБ (0%) Заголовок : Eng Язык : Английский (US) По умолчанию : Нет Принудительно : Нет Текст #4 Идентификатор : 9 Формат : UTF-8 Идентификатор кодека : S_TEXT/UTF8 Идентификатор кодека/Информация : UTF-8 Plain Text Продолжительность : 1 ч. 1 мин. Битрейт : 77 бит/сек Частота кадров : 0,280 кадр/сек Число элементов : 1027 Размер потока : 34,9 КиБ (0%) Заголовок : SDH Язык : Английский (US) По умолчанию : Нет Принудительно : Нет Меню 00:00:00.000 : en:Scene 1 00:00:06.000 : en:Recap 00:01:50.000 : en:Scene 2 00:59:13.000 : en:End Credits
[+] Скриншоты

Всего файлов в раздаче: 6 
The.Boys.S04E01.WEBDL.720p.RGzsRutracker.mkv2.49 GB
The.Boys.S04E02.WEBDL.720p.RGzsRutracker.mkv2.52 GB
The.Boys.S04E03.WEBDL.720p.RGzsRutracker.mkv2.22 GB
The.Boys.S04E04.WEBDL.720p.RGzsRutracker.mkv2.55 GB
The.Boys.S04E05.WEBDL.720p.RGzsRutracker.mkv2.51 GB
The.Boys.S04E06.WEBDL.720p.RGzsRutracker.mkv2.50 GB

Похожие раздачи по запросу - Пацаны
Вчера magnet Пацаны / The Boys [S04] (2024) WEB-DLRip-AVC | HDrezka Studio, NewStudio 7.94 GB ↑ 0 ↓ 0
Вчера magnet Пацаны / The Boys [S04] (2024) WEB-DL 1080p | D, P, P2 37.58 GB ↑ 0 ↓ 14
Вчера magnet Пацаны / The Boys [S04] (2024) UHD WEB-DL-HEVC 2160p | 4K | HDR | D, P, P2 57.88 GB ↑ 0 ↓ 0
2024-07-19 magnet Пацаны / The Boys [S04] (2024) WEBRip от Kerob | L 5.06 GB ↑ 0 ↓ 0
2024-07-19 magnet Пацаны / The Boys [S04] (2024) WEB-DL-HEVC 2160p от Kerob | 4K | HDR | L 65.49 GB ↑ 0 ↓ 1
2024-07-19 magnet Пацаны / The Boys [01-04x01-31 из 32] (2019-2024) WEB-DLRip | Кубик в кубе 25.97 GB ↑ 0 ↓ 1
2024-07-18 magnet Пацаны / The Boys [04x01-07 из 08] (2024) WEB-DL 1080p | D | Red Head Sound 25.75 GB ↑ 0 ↓ 1

Комментарии


Зарегистрируйтесь чтобы добавить комментарий
Торрент клиент
byTorrent - программа для загрузки торрент-файлов.

Скачать byTorrent.exe (1,5 МБ)

Скачать byTorrent.zip (0,6 МБ)

Поддержи torrent.by
российских рублей
(300 российских рублей это 4$)

Обратная связь rss

End game ©