↑↓torrent.by
Поиск
Логин:  Регистрация
Пароль:

Загадка волшебного острова / Berend Botje / Charlie Cooper - The Egg Mystery (2021) WEB-DL 1080p | D

download Скачать торрент-файл   magnet Магнитная ссылка Размер: 2.22 GB Добавлен: 2024-07-10 17:00
Пиры будут получены из сети DHT
Последний сидер был замечен 2024-07-10 17:00
Информация о фильме Название: Загадка волшебного острова Оригинальное название: Berend Botje / Charlie Cooper - The Egg Mystery Год выпуска: 2021 Жанр: приключения, семейный Выпущено: Нидерланды / NOBS Entertainment, NewBe Режиссер: Манс ван ден Берг В ролях: Дорис Зюйдерланд, Томас Акда, Клаас ван Круйстум, Джастин Дос Сантос, Петр Гольштейн, Маттейн Хартеминк, Тедо Кайцер, Барт Клевер, Зомайра Ноувен, Сюзан Раддер Описание: Юная Чарли Купер мечтает о путешествиях и хочет стать капитаном, как ее папа и дед. По дороге в школу она случайно обнаруживает чрезвычайно редкое яйцо птицы, считавшейся вымершей. Эта находка привлекает внимание хитрого мэра, одержимого идеей прославиться. Яйцо у девочки отбирают. Но Чарли не промах, и не собирается так легко сдаваться, к тому же она узнает, что птенец может вылупиться из яйца только на родине, на далеком таинственном острове. Она отправляется туда вместе с друзьями. Продолжительность: 01:20:29 Перевод: Дублированный (Moygolos) Субтитры: Отсутствуют Файл Формат: MKV Качество: WEB-DL 1080p Видео: AVC/H.264, 1920x804, ~3000 Kbps Аудио 1: AC3, 6 ch, 448 Kbps - Русский (DUB) Аудио 2: E-AC3, 6 ch, 448 Kbps - Русский (DUB) Релиз от: karfagen1975
[+] MediaInfo:General Unique ID : 183255127401291956486224102983912762948 (0x89DDA75B02C3CEA2D23230964D91AE44) Complete name : Berend.Botje.2021.WEB-DL.1080p.mkv Format : Matroska Format version : Version 4 File size : 2.22 GiB Duration : 1 h 20 min Overall bit rate : 3 954 kb/s Encoded date : UTC 2024-07-07 17:56:21 Writing application : mkvmerge v75.0.0 ('Goliath') 64-bit Writing library : libebml v1.4.4 + libmatroska v1.7.1 Video ID : 1 Format : AVC Format/Info : Advanced Video Codec Format profile : High@L4 Format settings : CABAC / 5 Ref Frames Format settings, CABAC : Yes Format settings, Reference frames : 5 frames Codec ID : V_MPEG4/ISO/AVC Duration : 1 h 20 min Bit rate : 3 056 kb/s Width : 1 920 pixels Height : 804 pixels Display aspect ratio : 2.40:1 Frame rate mode : Constant Frame rate : 24.000 FPS Color space : YUV Chroma subsampling : 4:2:0 Bit depth : 8 bits Scan type : Progressive Bits/(Pixel*Frame) : 0.082 Stream size : 1.72 GiB (77%) Title : Загадка волшебного острова (2021) WEB-DL 1080p Writing library : x264 core 157 Encoding settings : cabac=1 / ref=5 / deblock=1:0:0 / analyse=0x3:0x133 / me=umh / subme=10 / psy=1 / psy_rd=1.00:0.00 / mixed_ref=1 / me_range=24 / chroma_me=1 / trellis=2 / 8x8dct=1 / cqm=0 / deadzone=21,11 / fast_pskip=1 / chroma_qp_offset=-2 / threads=25 / lookahead_threads=4 / sliced_threads=0 / nr=0 / decimate=1 / interlaced=0 / bluray_compat=0 / stitchable=1 / constrained_intra=0 / bframes=8 / b_pyramid=2 / b_adapt=2 / b_bias=0 / direct=3 / weightb=1 / open_gop=0 / weightp=2 / keyint=250 / keyint_min=24 / scenecut=40 / intra_refresh=0 / rc_lookahead=96 / rc=crf / mbtree=1 / crf=16.0 / qcomp=0.60 / qpmin=0 / qpmax=69 / qpstep=4 / ip_ratio=1.40 / aq=1:1.00 Language : Dutch Default : Yes Forced : No Audio #1 ID : 2 Format : AC-3 Format/Info : Audio Coding 3 Commercial name : Dolby Digital Codec ID : A_AC3 Duration : 1 h 20 min Bit rate mode : Constant Bit rate : 448 kb/s Channel(s) : 6 channels Channel layout : L R C LFE Ls Rs Sampling rate : 48.0 kHz Frame rate : 31.250 FPS (1536 SPF) Compression mode : Lossy Stream size : 258 MiB (11%) Title : DUB (MOYGOLOS) Language : Russian Service kind : Complete Main Default : No Forced : No Audio #2 ID : 3 Format : E-AC-3 Format/Info : Enhanced AC-3 Commercial name : Dolby Digital Plus Codec ID : A_EAC3 Duration : 1 h 20 min Bit rate mode : Constant Bit rate : 448 kb/s Channel(s) : 6 channels Channel layout : L R C LFE Ls Rs Sampling rate : 48.0 kHz Frame rate : 31.250 FPS (1536 SPF) Compression mode : Lossy Stream size : 258 MiB (11%) Title : DUB (MOYGOLOS) Language : Russian Service kind : Complete Main Default : No Forced : No
[+] Знаете ли вы, что…Имя главной героини на языке оригинала — Беренд Ботье, в международной и российской версии — Чарли Купер.
[+] Скриншоты
[+] Дополнительные скриншоты:

Всего файлов в раздаче: 1 
Berend.Botje.2021.WEB-DL.1080p.mkv2.22 GB

Похожие раздачи по запросу - Загадка
2024-06-14 magnet Следствие ведет КГБ. Загадка для ЦРУ (2024) WEBRip 512.41 MB ↑ 1 ↓ 0
2024-05-31 magnet Загадка на двоих [S01-02] (2022-2024) WEBRip от Generalfilm | КПК 1.29 GB ↑ 0 ↓ 0
2023-06-30 magnet Загадка оборотня / Jacky Caillou (2022) WEB-DLRip | Р | КиноПоиск HD 1.46 GB ↑ 0 ↓ 0
2023-05-14 magnet Загадка на двоих. Февральская сирень [01-04 из 04] (2022) WEB-DLRip от Files-x 2.19 GB ↑ 0 ↓ 0

Комментарии


Зарегистрируйтесь чтобы добавить комментарий
Торрент клиент
byTorrent - программа для загрузки торрент-файлов.

Скачать byTorrent.exe (1,5 МБ)

Скачать byTorrent.zip (0,6 МБ)

Поддержи torrent.by
российских рублей
(300 российских рублей это 4$)

Обратная связь rss

End game ©