↑↓torrent.by
Поиск
Логин:  Регистрация
Пароль:

Дракон: История Брюса Ли / Dragon: The Bruce Lee Story (1993) BDRip 1080p | D, P, A

download Скачать торрент-файл   magnet Магнитная ссылка Размер: 8.60 GB Добавлен: 2024-07-10 17:00
Пиры будут получены из сети DHT
Последний сидер был замечен 2024-07-11 21:31
Информация о фильме Название: Дракон: История Брюса Ли Оригинальное название: Dragon: The Bruce Lee Story Год выхода: 1993 Жанр: Боевик, драма, биография Режиссер: Роб Коэн В ролях: Джейсон Скотт Ли, Лорен Холли, Роберт Вагнер, Майкл Лернд, Нэнси Кван, Кэй Тонг Лим, Рик Янг, Лоюн Ван, Стерлинг Мейсер мл., Свен-Оле Торсен О фильме: Биографическая драма, рассказывающая о жизни легендарного Брюса Ли, погибшего таинственным образом. Фильм снят по воспоминаниям жены Брюса Линды Ли Колдуэлл. Создатели ленты попытались показать Ли как человека, преодолевающего препятствия, неуклонно идущего к цели. Мистика и реальность переплетаются друг с другом, и Брюс Ли, великий «маленький дракон», вступает в бой не только с окружающей действительностью, но и с демоном преследующих его кошмаров. Страна: США Студия: Universal Pictures Продолжительность: 01:59:57 Перевод: Дубляж + профессиональный (многоголосый закадровый) + авторский (одноголосый закадровый) Субтитры: Русские, английские Файл Кодек: h.264 Качество: BDRip 1080p (Kentura) Видео: MPEG-4 AVC, 1920x816, 8 500 Кбит/с, 23.976 кадр/с, 0.226 bpp Аудио #1: Русский (AC3, 2ch, 192 Кбит/с, 48.0 KHz) DUB Аудио #2: Русский (AC3, 6ch, 448 Кбит/с, 48.0 KHz) MVO (R5 "Lizard") Аудио #3: Русский (AC3, 2ch, 192 Кбит/с, 48.0 KHz) MVO (TK "СТС") Аудио #4: Русский (AC3, 2ch, 192 Кбит/с, 48.0 KHz) MVO (TK "HTB") Аудио #5: Русский (AC3, 2ch, 192 Кбит/с, 48.0 KHz) AVO (Леонид Володарский) Аудио #6: Русский (AC3, 2ch, 192 Кбит/с, 48.0 KHz) AVO (Вартан Дохалов) Аудио #7: Английский (AC3, 6ch, 448 Кбит/с, 48.0 KHz)
[+] M/IGeneral Complete name : Dragon.The.Bruce.Lee.Story.1993.BDRip.1080p.mkv Format : Matroska Format version : Version 4 File size : 8.60 GiB Duration : 1 h 59 min Overall bit rate : 10.3 Mb/s Movie name : Дракон: История Брюса Ли / Dragon: The Bruce Lee Story Encoded date : UTC 2019-08-31 17:07:19 Writing application : mkvmerge v37.0.0 ('Leave It') 64-bit Writing library : libebml v1.3.9 + libmatroska v1.5.2 Attachments : poster.jpg / poster 2.jpg Video ID : 1 Format : AVC Format/Info : Advanced Video Codec Format profile : High@L4.1 Format settings : CABAC / 5 Ref Frames Format settings, CABAC : Yes Format settings, Reference : 5 frames Codec ID : V_MPEG4/ISO/AVC Duration : 1 h 59 min Bit rate : 8 500 kb/s Width : 1 920 pixels Height : 816 pixels Display aspect ratio : 2.35:1 Frame rate mode : Constant Frame rate : 23.976 (24000/1001) FPS Color space : YUV Chroma subsampling : 4:2:0 Bit depth : 8 bits Scan type : Progressive Bits/(Pixel*Frame) : 0.226 Stream size : 7.03 GiB (82%) Title : BDRip 1080p Writing library : x264 core 125 r2200 999b753 Encoding settings : cabac=1 / ref=5 / deblock=1:-1:-1 / analyse=0x3:0x113 / me=umh / subme=11 / psy=1 / psy_rd=1.00:0.15 / mixed_ref=1 / me_range=32 / chroma_me=1 / trellis=2 / 8x8dct=1 / cqm=0 / deadzone=21,11 / fast_pskip=1 / chroma_qp_offset=-3 / threads=6 / lookahead_threads=1 / sliced_threads=0 / nr=0 / decimate=1 / interlaced=0 / bluray_compat=0 / constrained_intra=0 / bframes=12 / b_pyramid=2 / b_adapt=2 / b_bias=0 / direct=3 / weightb=1 / open_gop=0 / weightp=2 / keyint=250 / keyint_min=23 / scenecut=40 / intra_refresh=0 / rc_lookahead=50 / rc=abr / mbtree=1 / bitrate=8500 / ratetol=1.0 / qcomp=0.60 / qpmin=0 / qpmax=69 / qpstep=4 / ip_ratio=1.40 / aq=1:1.00 Language : English Default : Yes Forced : No Audio #1 ID : 2 Format : AC-3 Format/Info : Audio Coding 3 Commercial name : Dolby Digital Codec ID : A_AC3 Duration : 1 h 59 min Bit rate mode : Constant Bit rate : 192 kb/s Channel(s) : 2 channels Channel layout : L R Sampling rate : 48.0 kHz Frame rate : 31.250 FPS (1536 SPF) Bit depth : 16 bits Compression mode : Lossy Stream size : 165 MiB (2%) Title : DUB- Blu Ray Language : Russian Service kind : Complete Main Default : Yes Forced : No Audio #2 ID : 3 Format : AC-3 Format/Info : Audio Coding 3 Commercial name : Dolby Digital Codec ID : A_AC3 Duration : 1 h 59 min Bit rate mode : Constant Bit rate : 448 kb/s Channel(s) : 6 channels Channel layout : L R C LFE Ls Rs Sampling rate : 48.0 kHz Frame rate : 31.250 FPS (1536 SPF) Bit depth : 16 bits Compression mode : Lossy Stream size : 384 MiB (4%) Title : MVO - R5 "Lizard" Language : Russian Service kind : Complete Main Default : No Forced : No Audio #3 ID : 4 Format : AC-3 Format/Info : Audio Coding 3 Commercial name : Dolby Digital Codec ID : A_AC3 Duration : 1 h 59 min Bit rate mode : Constant Bit rate : 192 kb/s Channel(s) : 2 channels Channel layout : L R Sampling rate : 48.0 kHz Frame rate : 31.250 FPS (1536 SPF) Bit depth : 16 bits Compression mode : Lossy Stream size : 165 MiB (2%) Title : MVO_СТС Language : Russian Service kind : Complete Main Default : No Forced : No Audio #4 ID : 5 Format : AC-3 Format/Info : Audio Coding 3 Commercial name : Dolby Digital Codec ID : A_AC3 Duration : 1 h 59 min Bit rate mode : Constant Bit rate : 192 kb/s Channel(s) : 2 channels Channel layout : L R Sampling rate : 48.0 kHz Frame rate : 31.250 FPS (1536 SPF) Bit depth : 16 bits Compression mode : Lossy Stream size : 165 MiB (2%) Title : MVO - TK "HTB" Language : Russian Service kind : Complete Main Default : No Forced : No Audio #5 ID : 6 Format : AC-3 Format/Info : Audio Coding 3 Commercial name : Dolby Digital Codec ID : A_AC3 Duration : 1 h 59 min Bit rate mode : Constant Bit rate : 192 kb/s Channel(s) : 2 channels Channel layout : L R Sampling rate : 48.0 kHz Frame rate : 31.250 FPS (1536 SPF) Bit depth : 16 bits Compression mode : Lossy Stream size : 165 MiB (2%) Title : AVO- Леонид Володарский Language : Russian Service kind : Complete Main Default : No Forced : No Audio #6 ID : 7 Format : AC-3 Format/Info : Audio Coding 3 Commercial name : Dolby Digital Codec ID : A_AC3 Duration : 1 h 59 min Bit rate mode : Constant Bit rate : 192 kb/s Channel(s) : 2 channels Channel layout : L R Sampling rate : 48.0 kHz Frame rate : 31.250 FPS (1536 SPF) Bit depth : 16 bits Compression mode : Lossy Stream size : 165 MiB (2%) Title : AVO - В.Дохалов Language : Russian Service kind : Complete Main Default : No Forced : No Audio #7 ID : 8 Format : AC-3 Format/Info : Audio Coding 3 Commercial name : Dolby Digital Codec ID : A_AC3 Duration : 1 h 59 min Bit rate mode : Constant Bit rate : 448 kb/s Channel(s) : 6 channels Channel layout : L R C LFE Ls Rs Sampling rate : 48.0 kHz Frame rate : 31.250 FPS (1536 SPF) Bit depth : 16 bits Compression mode : Lossy Stream size : 384 MiB (4%) Title : ENG Language : English Service kind : Complete Main Default : No Forced : No Text #1 ID : 9 Format : UTF-8 Codec ID : S_TEXT/UTF8 Codec ID/Info : UTF-8 Plain Text Duration : 1 h 6 min Bit rate : 2 b/s Count of elements : 23 Stream size : 1 014 Bytes (0%) Title : Forced Language : Russian Default : No Forced : Yes Text #2 ID : 10 Format : UTF-8 Codec ID : S_TEXT/UTF8 Codec ID/Info : UTF-8 Plain Text Duration : 1 h 51 min Bit rate : 73 b/s Count of elements : 1153 Stream size : 60.0 KiB (0%) Title : BD Language : Russian Default : Yes Forced : No Text #3 ID : 11 Format : UTF-8 Codec ID : S_TEXT/UTF8 Codec ID/Info : UTF-8 Plain Text Duration : 1 h 56 min Bit rate : 67 b/s Count of elements : 1001 Stream size : 57.8 KiB (0%) Language : Russian Default : No Forced : No Text #4 ID : 12 Format : PGS Muxing mode : zlib Codec ID : S_HDMV/PGS Codec ID/Info : Picture based subtitle format used on BDs/HD-DVDs Duration : 1 h 54 min Bit rate : 33.1 kb/s Count of elements : 2956 Stream size : 27.1 MiB (0%) Title : ENG Language : English Default : No Forced : No Menu 00:00:00.000 : Глава 01 00:05:00.000 : Глава 02 00:10:00.000 : Глава 03 00:15:00.000 : Глава 04 00:20:00.000 : Глава 05 00:25:00.000 : Глава 06 00:30:00.000 : Глава 07 00:35:00.000 : Глава 08 00:40:00.000 : Глава 09 00:45:00.000 : Глава 10 00:50:00.000 : Глава 11 00:55:00.000 : Глава 12 01:00:00.000 : Глава 13 01:05:00.000 : Глава 14 01:10:00.000 : Глава 15 01:15:00.000 : Глава 16 01:20:00.000 : Глава 17 01:25:00.000 : Глава 18 01:30:00.000 : Глава 19 01:35:00.000 : Глава 20 01:40:00.000 : Глава 21 01:45:00.000 : Глава 22 01:50:00.000 : Глава 23 01:55:00.000 : Глава 24
[+] Скриншоты

Всего файлов в раздаче: 1 
Dragon.The.Bruce.Lee.Story.1993.BDRip.1080p.mkv8.60 GB

Похожие раздачи по запросу - Дракон
2024-06-02 magnet Дева и дракон / Damsel (2024) WEB-DLRip-AVC от DoMiNo & селезень | D, P | HDRezka Studio, TVShows 1.46 GB ↑ 0 ↓ 0
2024-03-31 magnet Дева и дракон / Damsel (2024) WEB-DLRip 720p от DoMiNo & селезень | D, P, P2 4.30 GB ↑ 0 ↓ 0
2024-03-24 magnet Дева и дракон / Damsel (2024) WEB-DLRip от MegaPeer | D | HDRezka Studio 1.46 GB ↑ 0 ↓ 0
2024-03-24 magnet Дева и дракон / Damsel (2024) WEB-DL 2160p | 4K | HDR | Dolby Vision Profile 8 | D, P, P2, L 17.29 GB ↑ 0 ↓ 0
2024-03-15 magnet Дева и дракон / Damsel (2024) WEB-DL 1080p от EniaHD | P, P2, L 8.18 GB ↑ 0 ↓ 0
2024-03-14 magnet Дева и дракон / Damsel (2024) WEB-DLRip 720p от DoMiNo & селезень | P, P2 | Red Head Sound, Jaskier, ViruseProject 2К3.37 GB ↑ 0 ↓ 0
2024-03-13 magnet Дева и дракон / Damsel (2024) WEB-DLRip от MegaPeer | P | Jaskier 1.46 GB ↑ 0 ↓ 0

Комментарии


Зарегистрируйтесь чтобы добавить комментарий
Торрент клиент
byTorrent - программа для загрузки торрент-файлов.

Скачать byTorrent.exe (1,5 МБ)

Скачать byTorrent.zip (0,6 МБ)

Поддержи torrent.by
российских рублей
(300 российских рублей это 4$)

Обратная связь rss

End game ©