↑↓torrent.by
Поиск
Логин:  Регистрация
Пароль:

Сто лет тому вперёд (2024) WEBRip-AVC от DoMiNo & селезень

download Скачать торрент-файл   magnet Магнитная ссылка Размер: 2.04 GB Раздают: 0 Качают: 1 Добавлен: 2024-07-10 17:00
Пиры будут получены из сети DHT
Последний сидер был замечен вчера в 16:58
Информация о фильме Название: Сто лет тому вперёд Год выхода: 2024 Жанр: Фантастика, приключения, семейный Режиссер: Александр Андрющенко В ролях: Даша Верещагина, Марк Эйдельштейн, Константин Хабенский, Виктория Исакова, Фёдор Бондарчук, Александр Петров, Юра Борисов, Софа Цибирева, Матвей Астраханцев, Кирилл Митрофанов О фильме: Они живут в разных мирах. Коля Герасимов - в сегодняшней Москве, Алиса Селезнева - на сто лет позже. Коля - обычный парень, ему нет дела до будущего. Алису не отпускает прошлое: она должна найти маму, которую потеряла, когда была совсем ребенком. Встреча Алисы и Коли станет началом невероятных приключений, в которых нашим героям предстоит отвоевать у космических пиратов Вселенную, восстановить ход времени и обрести самое дорогое: любовь и дружбу. Страна: Россия Студия: Кинокомпания «Водород», Арт Пикчерс Студия / Art Pictures Studio Продолжительность: 02:21:41 Перевод: Не требуется Файл Формат: Matroska Качество: WEBRip-AVC Видео: 1024x430 at 24.000 fps, x264@L4.1, ~1677 kbps Аудио: AC3, 6 ch, ~384 kbps - | Русский | Субтитры: Отсутствуют ***Рип от: -=DoMiNo=- *** Дебандинг, зерно.
[+] M/IGeneral Unique ID : 174485148680468766018725912639381239710 (0x83449E055F04432C6C8A2AD68C10F79E) Complete name : G:Сто.лет.тому.вперёд.2024.WEB-DLRip.x264.seleZen.mkv Format : Matroska Format version : Version 4 File size : 2.04 GiB Duration : 2 h 21 min Overall bit rate : 2 063 kb/s Frame rate : 24.000 FPS Movie name : Сто.лет.тому.вперёд.2024.WEB-DLRip.x264.seleZen Encoded date : 2024-07-10 08:02:31 UTC Writing application : mkvmerge v85.0 ('Shame For You') 64-bit Writing library : libebml v1.4.5 + libmatroska v1.7.1 Cover : Yes Attachments : cover.jpg / small_cover.jpg Video ID : 1 Format : AVC Format/Info : Advanced Video Codec Format profile : High@L4.1 Format settings : CABAC / 10 Ref Frames Format settings, CABAC : Yes Format settings, Reference : 10 frames Codec ID : V_MPEG4/ISO/AVC Duration : 2 h 21 min Bit rate : 1 677 kb/s Width : 1 024 pixels Height : 430 pixels Display aspect ratio : 2.39:1 Frame rate mode : Constant Frame rate : 24.000 FPS Color space : YUV Chroma subsampling : 4:2:0 Bit depth : 8 bits Scan type : Progressive Bits/(Pixel*Frame) : 0.159 Stream size : 1.66 GiB (81%) Title : -=DoMiNo=- Writing library : x264 core 164 r3191 -DoMiNo Encoding settings : cabac=1 / ref=10 / deblock=1:-2:-1 / analyse=0x3:0x133 / me=umh / subme=10 / psy=1 / psy_rd=1.00:0.20 / mixed_ref=1 / me_range=32 / chroma_me=1 / trellis=2 / 8x8dct=1 / cqm=0 / deadzone=21,11 / fast_pskip=0 / chroma_qp_offset=-3 / threads=13 / lookahead_threads=3 / sliced_threads=0 / nr=0 / decimate=1 / interlaced=0 / bluray_compat=0 / constrained_intra=0 / bframes=12 / b_pyramid=2 / b_adapt=2 / b_bias=0 / direct=3 / weightb=1 / open_gop=0 / weightp=2 / keyint=240 / keyint_min=24 / scenecut=40 / intra_refresh=0 / rc_lookahead=60 / rc=crf / mbtree=0 / crf=18.3 / qcomp=0.60 / qpmin=0 / qpmax=69 / qpstep=4 / vbv_maxrate=50000 / vbv_bufsize=62500 / crf_max=0.0 / nal_hrd=none / filler=0 / ip_ratio=1.40 / pb_ratio=1.30 / aq=1:0.90 Language : Russian Default : Yes Forced : No Color range : Limited Color primaries : BT.709 Transfer characteristics : BT.709 Matrix coefficients : BT.709 Audio ID : 2 Format : AC-3 Format/Info : Audio Coding 3 Commercial name : Dolby Digital Codec ID : A_AC3 Duration : 2 h 21 min Bit rate mode : Constant Bit rate : 384 kb/s Channel(s) : 6 channels Channel layout : L R C LFE Ls Rs Sampling rate : 48.0 kHz Frame rate : 31.250 FPS (1536 SPF) Compression mode : Lossy Stream size : 389 MiB (19%) Language : Russian Service kind : Complete Main Default : Yes Forced : No Dialog Normalization : -31 dB cmixlev : -3.0 dB surmixlev : -6 dB dialnorm_Average : -31 dB dialnorm_Minimum : -31 dB dialnorm_Maximum : -31 dB
Релиз: Присоединяйся к: Кликай на баннеры.

Всего файлов в раздаче: 1 
Сто.лет.тому.вперёд.2024.WEB-DLRip.x264.seleZen.mkv2.04 GB

Похожие раздачи по запросу - Сто
2024-07-13 magnet Сто лет тому вперёд (2024) WEBRip 720p от DoMiNo & селезень 3.72 GB ↑ 0 ↓ 1
2024-07-10 magnet Сто лет тому вперёд (2024) WEBRip от Generalfilm | КПК 538.33 MB ↑ 0 ↓ 0
2024-07-10 magnet Сто лет тому вперёд (2024) WEBRip от AR-Team 1.46 GB ↑ 0 ↓ 1
2024-07-10 magnet Сто лет тому вперёд (2024) WEBRip-HEVC 2160p | 4K | SDR 12.50 GB ↑ 4 ↓ 7
2024-07-10 magnet Сто лет тому вперёд (2024) WEBRip 720p от ExKinoRay 3.91 GB ↑ 0 ↓ 1
2024-07-10 magnet Сто лет тому вперёд (2024) WEBRip-AVC от ExKinoRay 1.46 GB ↑ 1 ↓ 0
2024-07-10 magnet Сто лет тому вперёд (2024) WEBRip 1080p от селезень 5.66 GB ↑ 3 ↓ 17

Комментарии


Зарегистрируйтесь чтобы добавить комментарий
Торрент клиент
byTorrent - программа для загрузки торрент-файлов.

Скачать byTorrent.exe (1,5 МБ)

Скачать byTorrent.zip (0,6 МБ)

Поддержи torrent.by
российских рублей
(300 российских рублей это 4$)

Обратная связь rss

End game ©