↑↓torrent.by
Поиск
Логин:  Регистрация
Пароль:

Спор между друзьями / Draugų lažybos (2024) WEB-DLRip от AR-Team | P2

download Скачать торрент-файл   magnet Магнитная ссылка Размер: 1.46 GB Добавлен: temaxa 2024-07-10 17:52
Пиры будут получены из сети DHT
Последний сидер был замечен 2024-07-22 00:21
Спор между друзьями / Draugų lažybos (2024) WEB-DLRip
Производство: Литва Жанр: Комедия Режиссер: Юстинас Крисюнас Актеры: Мантас Стонкус, Юстинас Янкявичюс, Андрюс Жюраускас, Валентинас Круликовскис, Гельмине Глемжайте, Витаутас Канюшонис, Вайда Баранове Описание: Четыре школьных друга, Каролис, Шампунас, Танкас и Принцас, скучают в своей жизни. Однажды они встречаются на встрече выпускников, повеселившись и почувствовав, что им нужны перемены, заключают пари. Первая задача - раздеться догола в общественном месте. Несмотря на обстоятельства, они выполняют задание и продолжают пари, которое требует говорить только правду в течение всего дня. Что ждет друзей дальше? Релиз от: AR-Team Продолжительность: 01:41:54 Качество видео: WEB-DLRip Перевод: Двуголосый профессиональный (SDI Media) Язык озвучки: Русский Субтитры: Отсутствуют Видео: XviD, 720x384, ~1853 Kbps Аудио: AC3, 2 ch, 192 Kbps - Русский
[+] MediaInfo:
General
Complete name: Draugu.lazybos.2024.WEB-DLRip.AR-Team.avi
Format: AVI
Format/Info: Audio Video Interleave
Format settings: BitmapInfoHeader / WaveFormatEx
File size: 1.46 GiB
Duration: 1 h 41 min
Overall bit rate: 2 055 kb/s
Frame rate: 25.000 FPS
Writing application: VirtualDubMod 1.5.10.3 | (build 2550/release)
Writing library: VirtualDubMod build 2550/release

Video
ID: 0
Format: MPEG-4 Visual
Format profile: Advanced Simple@L5
Format settings: BVOP1 / Custom Matrix
Format settings, BVOP: 1
Format settings, QPel: No
Format settings, GMC: No warppoints
Format settings, Matrix: Custom
Codec ID: XVID
Codec ID/Hint: XviD
Duration: 1 h 41 min
Bit rate: 1 854 kb/s
Width: 720 pixels
Height: 384 pixels
Display aspect ratio: 1.85:1
Frame rate: 25.000 FPS
Color space: YUV
Chroma subsampling: 4:2:0
Bit depth: 8 bits
Scan type: Progressive
Compression mode: Lossy
Bits/(Pixel*Frame): 0.268
Stream size: 1.32 GiB (90%)
Writing library: XviD 73

Audio
ID: 1
Format: AC-3
Format/Info: Audio Coding 3
Commercial name: Dolby Digital
Codec ID: 2000
Duration: 1 h 41 min
Bit rate mode: Constant
Bit rate: 192 kb/s
Channel(s): 2 channels
Channel layout: L R
Sampling rate: 48.0 kHz
Frame rate: 31.250 FPS (1536 SPF)
Compression mode: Lossy
Stream size: 140 MiB (9%)
Alignment: Split across interleaves
Interleave, duration: 40 ms (1.00 video frame)
Interleave, preload duration: 500 ms
Service kind: Complete Main
Dialog Normalization: -31 dB
dialnorm_Average: -31 dB
dialnorm_Minimum: -31 dB
dialnorm_Maximum: -31 dB
Скриншоты:

Всего файлов в раздаче: 1 
Draugu.lazybos.2024.WEB-DLRip.AR-Team.avi1.46 GB

Похожие раздачи по запросу - Спор
2024-07-11 magnet Спор между друзьями / Draugų lažybos (2024) WEB-DL 1080p от ExKinoRay | P2 4.19 GB ↑ 0 ↓ 1

Комментарии


Зарегистрируйтесь чтобы добавить комментарий
Торрент клиент
byTorrent - программа для загрузки торрент-файлов.

Скачать byTorrent.exe (1,5 МБ)

Скачать byTorrent.zip (0,6 МБ)

Поддержи torrent.by
российских рублей
(300 российских рублей это 4$)

Обратная связь rss

End game ©