↑↓torrent.by
Поиск
Логин:  Регистрация
Пароль:

Modern Talking - The Best & More (2022) FLAC

download Скачать торрент-файл   magnet Магнитная ссылка Размер: 2.22 GB Добавлен: 2022-04-02 05:52
Пиры будут получены из сети DHT
Последний сидер был замечен вчера в 23:10
Modern Talking - The Best & More (2022) FLAC

Название: The Best & More
Исполнители: Modern Talking
Год: 2022
Жанр: Euro-Disco, Pop
Страна: Germany

Продолжительность: 05:16:05
Формат/Кодек: FLAC
Тип рипа: Tracks
Битрейт аудио: Lossless
Носитель: CD
[+] 01. The Best - Original Versions

01. You're My Heart, You're My Soul (05:36)
02. You Can Win If You Want (03:53)
03. Diamonds Never Made A Lady (04:08)
04. The Night Is Yours, The Night Is Mine (05:32)
05. Do You Wanna (04:25)
06. One In A Million (03:45)
07. Cheri Cheri Lady (03:51)
08. With A Little Love (03:38)
09. You're The Lady Of My Heart (03:23)
10. Just Like An Angel (03:19)
11. Heaven Will Know (04:06)
12. Love Don't Live Here Anymore (04:26)
13. Don't Give Up (03:24)
14. Let's Talk About Love (03:55)
15. Brother Louie (03:44)
16. Just We Two (Mona Lisa) (04:00)
17. Lady Lai (05:00)
18. Doctor For My Heart (03:21)
19. Save Me - Don't Break Me (03:47)
20. Atlantis Is Calling (S.O.S. For Love) (03:53)
21. Angie's Heart (03:42)
22. Geronimo's Cadillac (03:17)
23. Princess Of The Night (03:55)
24. Jet Airliner (04:21)
25. Don't Worry (03:33)
26. Arabian Gold (03:41)
27. In 100 Years (03:57)
28. Don't Lose My Number (03:09)
29. Locomotion Tango (03:49)
30. Good Girls Go To Heaven - Bad Girls Go To Everywhere (03:36)

DRM + Лог проверки качества
foobar2000 1.5.5 / Замер динамического диапазона (DR) 1.1.1

--------------------------------------------------------------------------------
Анализ:   Modern Talking / The Best - Original Versions
--------------------------------------------------------------------------------

DR         Пики         RMS           Продолжительность трека
--------------------------------------------------------------------------------
DR12      -1.03 дБ   -14.49 дБ      5:36 01-You're My Heart, You're My Soul
DR11      -0.65 дБ   -13.77 дБ      3:53 02-You Can Win If You Want
DR10      -1.27 дБ   -13.50 дБ      4:09 03-Diamonds Never Made A Lady
DR10      -2.10 дБ   -13.94 дБ      5:33 04-The Night Is Yours, The Night Is Mine
DR11      -1.21 дБ   -14.56 дБ      4:26 05-Do You Wanna
DR10      -0.82 дБ   -13.25 дБ      3:46 06-One In A Million
DR10      -1.32 дБ   -13.45 дБ      3:52 07-Cheri Cheri Lady
DR11      -0.96 дБ   -13.99 дБ      3:39 08-With A Little Love
DR12      -1.32 дБ   -15.12 дБ      3:24 09-You're The Lady Of My Heart
DR11      -2.68 дБ   -15.50 дБ      3:19 10-Just Like An Angel
DR11      -1.19 дБ   -14.08 дБ      4:07 11-Heaven Will Know
DR12      -1.27 дБ   -14.55 дБ      4:26 12-Love Don't Live Here Anymore
DR11      -2.10 дБ   -15.76 дБ      3:24 13-Don't Give Up
DR11      -1.58 дБ   -13.69 дБ      3:56 14-Let's Talk About Love
DR10      -0.78 дБ   -12.55 дБ      3:44 15-Brother Louie
DR11      -0.24 дБ   -12.39 дБ      4:00 16-Just We Two (Mona Lisa)
DR10      -1.23 дБ   -13.73 дБ      5:01 17-Lady Lai
DR11      -0.62 дБ   -13.67 дБ      3:22 18-Doctor For My Heart
DR11      -0.53 дБ   -13.15 дБ      3:48 19-Save Me - Don't Break Me
DR10      -1.15 дБ   -13.71 дБ      3:53 20-Atlantis Is Calling (S.O.S. For Love)
DR10      -0.67 дБ   -12.43 дБ      3:42 21-Angie's Heart
DR10      -1.73 дБ   -13.57 дБ      3:17 22-Geronimo's Cadillac
DR12      -0.88 дБ   -14.67 дБ      3:55 23-Princess Of The Night
DR11      -3.70 дБ   -15.77 дБ      4:21 24-Jet Airliner
DR12      -2.60 дБ   -16.12 дБ      3:34 25-Don't Worry
DR13      -1.59 дБ   -16.60 дБ      3:41 26-Arabian Gold
DR12      -2.01 дБ   -16.54 дБ      3:58 27-In 100 Years
DR13      -0.76 дБ   -15.56 дБ      3:10 28-Don't Lose My Number
DR13      -3.66 дБ   -18.22 дБ      3:49 29-Locomotion Tango
DR13      -2.30 дБ   -16.80 дБ      3:37 30-Good Girls Go To Heaven - Bad Girls Go To Everywhere
--------------------------------------------------------------------------------

Количество треков: 30
Реальные значения DR: DR11

Частота: 44100 Гц
Каналов: 2
Разрядность: 16
Битрейт: 936 кбит/с
Кодек: FLAC
================================================================================

-----------------------

DON'T MODIFY THIS FILE

-----------------------

PERFORMER: auCDtect Task Manager, ver. 1.6.0 RC1 build 1.6.0.1
Copyright (c) 2008-2010 y-soft. All rights reserved
http://y-soft.org

ANALYZER: auCDtect: CD records authenticity detector, version 0.8.2
Copyright (c) 2004 Oleg Berngardt. All rights reserved.
Copyright (c) 2004 Alexander Djourik. All rights reserved.

FILE: 01. You're My Heart, You're My Soul.flac
 Size: 37367148 Hash: FDED853573653CB13586D04652A3A669 Accuracy: -m8
 Conclusion: CDDA 100%
 Signature: F8CB54DFC99652BCD04E3009A1056E8C2755B111

FILE: 02. You Can Win If You Want.flac
 Size: 27456168 Hash: B8E9F6B8F02CF4F45C1FC4B932D6AFE3 Accuracy: -m8
 Conclusion: CDDA 100%
 Signature: 295D06F3E547EAA4AB32000DC695A5A183745400

FILE: 03. Diamonds Never Made A Lady.flac
 Size: 28953193 Hash: C0571FB585C53B0B774246407C98C691 Accuracy: -m8
 Conclusion: CDDA 100%
 Signature: CAB59CF857C382430E43DDDDDB5BCF8008BEA1CF

FILE: 04. The Night Is Yours, The Night Is Mine.flac
 Size: 38425495 Hash: 4C90D534BECF9B647EDBD07DE192984D Accuracy: -m8
 Conclusion: CDDA 99%
 Signature: 5B8F442D992463AF8E66BF51E1F27584AE89729D

FILE: 05. Do You Wanna.flac
 Size: 30353399 Hash: AC899699A43AC447CCCE47907C98AC5D Accuracy: -m8
 Conclusion: CDDA 100%
 Signature: E8495839278D79246AF94DE4ED8024F4365CFCC8

FILE: 06. One In A Million.flac
 Size: 26600679 Hash: ABCB76E3BEB9E7BFF3819D65E57653A4 Accuracy: -m8
 Conclusion: CDDA 100%
 Signature: C5CFF4FB0990E715D7F7FBC2C2C9C13A656DEF22

FILE: 07. Cheri Cheril Lady.flac
 Size: 25784350 Hash: C68F587364301814175132940559F5E7 Accuracy: -m8
 Conclusion: CDDA 99%
 Signature: 69AEDF4F69F53A3CB1446C782C1FB20B47AB74B0

FILE: 08. With A Little Love.flac
 Size: 24859593 Hash: 3DA1065F68D31C59F4F5FE5EF40FAE60 Accuracy: -m8
 Conclusion: CDDA 100%
 Signature: 3907848B621F5B827B59B747A0678F349C7F42F9

FILE: 09. You're The Lady Of My Heart.flac
 Size: 22769332 Hash: C220CF233EB0F4A9F0B7E758E6D0F7E1 Accuracy: -m8
 Conclusion: CDDA 100%
 Signature: 6BD2DA3761975633DCA6C164AD57EB39322D6CE8

FILE: 10. Just Like An Angel.flac
 Size: 21727536 Hash: 8E73A4623439A8FC57D2400E49765CFA Accuracy: -m8
 Conclusion: CDDA 100%
 Signature: 0FC7C630E8061E50D4F4F5870E153E130C183606

FILE: 11. Heaven Will Know.flac
 Size: 27956121 Hash: 0F13202429042EAF32B222C336171875 Accuracy: -m8
 Conclusion: CDDA 100%
 Signature: ACD18DA3D66EF6FD44BF4C5010B6554B8983A300

FILE: 12. Love Don't Live Here Anymore.flac
 Size: 29782629 Hash: 740A74ADFF84AD5EBDFAEF0DBA0CB4AE Accuracy: -m8
 Conclusion: CDDA 100%
 Signature: A0E829DB5ADD499B72F216D95221AA322BD3DDF1

FILE: 13. Don't Give Up.flac
 Size: 21721944 Hash: 05243E0D3780CC8E9175E045A8D7A141 Accuracy: -m8
 Conclusion: CDDA 99%
 Signature: 2AB109F9C37F433ED2106096F214F4A520B5F136

FILE: 14. Let's Talk About Love.flac
 Size: 27216731 Hash: B9F68749278043C1D3412E86D6BCEAE5 Accuracy: -m8
 Conclusion: CDDA 100%
 Signature: 0C4BED6E0E067121D166612083DEBEFC6D5D869D

FILE: 15. Brother Louie.flac
 Size: 27776368 Hash: 8A6FDD8A4040BCB6B92339F9B887D9F3 Accuracy: -m8
 Conclusion: CDDA 100%
 Signature: 100B40D61CB91688D95E6F4BFC5890F82C790795

FILE: 16. Just We Two (Mona Lisa).flac
 Size: 29843998 Hash: B58B2C6024E05AC824A5519C894B4BAC Accuracy: -m8
 Conclusion: CDDA 100%
 Signature: 2E9248D7A12AE0A22F83AF2C43BED936D67A1E9C

FILE: 17. Lady Lai.flac
 Size: 36886610 Hash: 13AFB110D4B499704806A162291177D6 Accuracy: -m8
 Conclusion: CDDA 100%
 Signature: 06EA8A687E9CD0DE7F0EC21B062903EEB3EBAB81

FILE: 18. Doctor For My Heart.flac
 Size: 25449881 Hash: 9B8A61CD72E126EF854C3AD67537CD1B Accuracy: -m8
 Conclusion: CDDA 100%
 Signature: 835BA22C5F67CFF3E990E6FDDF89790EE88AC7EC

FILE: 19. Save Me - Don't Break Me.flac
 Size: 28657394 Hash: 271D2524B962373DC8DC0893CA2AFB08 Accuracy: -m8
 Conclusion: CDDA 99%
 Signature: 3E7DCA1AA24D84104BFB8D4D4757C25681EB43F8

FILE: 20. Atlantis Is Calling (S.O.S. For Love).flac
 Size: 27939332 Hash: B57CBC39601DCDFDC14874338B0883FE Accuracy: -m8
 Conclusion: CDDA 100%
 Signature: F64A470A902084D2534B5FB733F3221A1E0ABAD4

FILE: 21. Angie's Heart.flac
 Size: 27393381 Hash: 8DF6087FC0268B0BE833A6271DF6591D Accuracy: -m8
 Conclusion: CDDA 100%
 Signature: 893C4003C44CB8C15EFB48F2FEFB9B380BB37E7B

FILE: 22. Geronimo's Cadillac.flac
 Size: 24236972 Hash: 91DF84462DC5AD10988450C299DDA6B2 Accuracy: -m8
 Conclusion: CDDA 100%
 Signature: 8B2530C6B1D092DDB442A64551E7FF3D2FEA1F39

FILE: 23. Princess Of The Night.flac
 Size: 28414418 Hash: 6FA29BA69AA8E4884CB80F7B33483916 Accuracy: -m8
 Conclusion: CDDA 99%
 Signature: B59BB8C0019FF7D6A21EC19BB46F720CB64C032B

FILE: 24. Jet Airliner.flac
 Size: 29673030 Hash: 1CFD11DE7C1152A89841B964A13B2F35 Accuracy: -m8
 Conclusion: CDDA 100%
 Signature: 36FED41779DAE2FBCB069B2AE2E2D4A7752CEA81

FILE: 25. Don't Worry.flac
 Size: 25731532 Hash: BF4651F7D4CB85549AD084743EE18D51 Accuracy: -m8
 Conclusion: CDDA 100%
 Signature: 4ADD19CEF958C18BBAC9554A516B2EA5E25FFBF1

FILE: 26. Arabian Gold.flac
 Size: 25891478 Hash: 80B1E2870304CBBFA3D97593E9D1BA58 Accuracy: -m8
 Conclusion: CDDA 100%
 Signature: FE4D556CCF8AA31CA9D13E7BCA68520CB7F29B5C

FILE: 27. In 100 Years.flac
 Size: 29096547 Hash: 3EE7F83E824E91274F8F5D181858A521 Accuracy: -m8
 Conclusion: CDDA 100%
 Signature: 52FC033847AF5611599901912F766346F0E8FFBA

FILE: 28. Don't Lose My Number.flac
 Size: 22572295 Hash: D6184D1D2D37046C4357317FE7821EF0 Accuracy: -m8
 Conclusion: CDDA 99%
 Signature: 0BD6FD29308F2B2852E50CF483725D7E8D9B7261

FILE: 29. Locomotion Tango.flac
 Size: 26919778 Hash: CBE2918A6A1B47EA0B04F577B1EB7F3A Accuracy: -m8
 Conclusion: CDDA 100%
 Signature: 519DDD5ED92268111508777B0052093FAEB7FBB5

FILE: 30. Good Girls Go To Heaven - Bad Girls Go To Everywhere.flac
 Size: 25441572 Hash: DF1F5B07D0F07A5857AD57F68F6CE650 Accuracy: -m8
 Conclusion: CDDA 100%
 Signature: 4130C93B7988037D00A641DBEED1195147B42915




[+] 02. The Best - New Versions & Hits

01. You're My Heart, You're My Soul (03:49)
02. Brother Louie (03:35)
03. Cheri Cheri Lady (03:01)
04. You Can Win If You Want (03:34)
05. Atlantis Is Calling (S.O.S. For Love) (03:21)
06. Geronimo's Cadillac (03:07)
07. We Take The Chance (04:06)
08. Jet Airliner (03:58)
09. In 100 Years (03:57)
10. You Are Not Alone (03:40)
11. Sexy, Sexy Lover (03:32)
12. Last Exit To Brooklyn (03:15)
13. I Can't Give You More (03:39)
14. Don't Let Me Go (03:19)
15. I'm So Much In Love (03:53)
16. Rouge Et Noir (03:14)
17. Can't Get Enough (03:34)
18. Love Is Like A Rainbow (03:57)
19. It Hurts So Good (03:21)
20. I'll Never Give You Up (03:25)
21. Taxi Girl (03:08)
22. China In Her Eyes (03:45)
23. Don't Take Away My Heart (03:36)
24. Cosmic Girl (03:40)
25. Part Time Lover (03:10)
26. Fly To The Moon (03:36)
27. Win The Race (03:35)
28. Higher Than Heaven (03:38)
29. Ready For The Victory (03:31)
30. TV Makes The Superstar (03:43)

DRM + Лог проверки качества
foobar2000 1.5.5 / Замер динамического диапазона (DR) 1.1.1

--------------------------------------------------------------------------------
Анализ:   Modern Talking / The Best - New Versions & Hits
--------------------------------------------------------------------------------

DR         Пики         RMS           Продолжительность трека
--------------------------------------------------------------------------------
DR6       -0.09 дБ    -7.57 дБ      3:49 01-You're My Heart, You're My Soul
DR7       -0.07 дБ    -7.29 дБ      3:36 02-Brother Louie
DR7       -0.08 дБ    -7.66 дБ      3:01 03-Cheri Cheri Lady
DR7       -0.08 дБ    -7.83 дБ      3:35 04-You Can Win If You Want
DR7       -0.29 дБ    -8.05 дБ      3:22 05-Atlantis Is Caling
DR7       -0.08 дБ    -8.26 дБ      3:08 06-Geronimo's Cadillac
DR6       -0.16 дБ    -6.71 дБ      4:07 07-We Take The Chance
DR7        0.00 дБ    -7.63 дБ      3:58 08-Jet Airliner
DR7       -0.08 дБ    -7.53 дБ      3:58 09-In 100 Years
DR6       -0.08 дБ    -7.55 дБ      3:40 10-You Are Not Alone
DR5       -0.01 дБ    -6.13 дБ      3:33 11-Sexy, Sexy Lover
DR6        0.00 дБ    -6.72 дБ      3:16 12-Last Exit To Brooklyn
DR6       -0.09 дБ    -6.48 дБ      3:40 13-I Can't Give You More
DR7        0.00 дБ    -7.91 дБ      3:19 14-Don't Let Me Go
DR7       -0.07 дБ    -8.49 дБ      3:53 15-I'm So Much In Love
DR6        0.00 дБ    -6.55 дБ      3:15 16-Rouge Et Noir
DR6       -0.10 дБ    -7.35 дБ      3:35 17-Can't Get Enough
DR7       -0.08 дБ    -7.85 дБ      3:57 18-Love Is Like A Rainbow
DR6        0.00 дБ    -7.84 дБ      3:22 19-It Hurts So Good
DR7       -0.28 дБ    -8.17 дБ      3:26 20-I'll Never Give You Up
DR6       -0.20 дБ    -6.68 дБ      3:08 21-Taxi Girl
DR7       -0.08 дБ    -7.65 дБ      3:45 22-China In Her Eyes
DR5        0.00 дБ    -6.79 дБ      3:37 23-Don't Take Away My Heart
DR6       -0.08 дБ    -7.62 дБ      3:40 24-Cosmic Girl
DR6       -0.08 дБ    -7.21 дБ      3:10 25-Part Time Lover
DR7       -0.09 дБ    -7.63 дБ      3:37 26-Fly To The Moon
DR6        0.00 дБ    -6.46 дБ      3:35 27-Win The Race
DR5        0.00 дБ    -6.21 дБ      3:38 28-Higher Than Heaven
DR5       -0.04 дБ    -6.04 дБ      3:31 29-Ready For The Victory
DR4       -0.20 дБ    -5.77 дБ      3:44 30-TV Makes The Superstar
--------------------------------------------------------------------------------

Количество треков: 30
Реальные значения DR: DR6

Частота: 44100 Гц
Каналов: 2
Разрядность: 16
Битрейт: 1137 кбит/с
Кодек: FLAC
================================================================================

-----------------------

DON'T MODIFY THIS FILE

-----------------------

PERFORMER: auCDtect Task Manager, ver. 1.6.0 RC1 build 1.6.0.1
Copyright (c) 2008-2010 y-soft. All rights reserved
http://y-soft.org

ANALYZER: auCDtect: CD records authenticity detector, version 0.8.2
Copyright (c) 2004 Oleg Berngardt. All rights reserved.
Copyright (c) 2004 Alexander Djourik. All rights reserved.

FILE: 01. You're My Heart, You're My Soul.flac
 Size: 30608745 Hash: 37C9EB2721B68A7712F0743BC61A9BB9 Accuracy: -m8
 Conclusion: CDDA 100%
 Signature: 1863B55902CFB58436FB3C2EB9A73F868FD1EFE3

FILE: 02. Brother Louie.flac
 Size: 28695439 Hash: 381009B1A50774497D59D8959D5DBE66 Accuracy: -m8
 Conclusion: CDDA 100%
 Signature: DBAA4F3D4732FA3A51E4672EDB560F5BDF18B9A8

FILE: 03. Cheri Cheri Lady.flac
 Size: 23897856 Hash: 0E8E679C2580BBF67787F27C0392CBFA Accuracy: -m8
 Conclusion: CDDA 100%
 Signature: E49362505EA58248B74266E95F7CB499A3C6AA13

FILE: 04. You Can Win If You Want.flac
 Size: 28549180 Hash: 8E767DA0DACC5AF5D67798C09B4CA099 Accuracy: -m8
 Conclusion: CDDA 100%
 Signature: 5DA1DB3D925DE8527590192933E86265972DF06B

FILE: 05. Atlantis Is Calling (S.O.S. For Love).flac
 Size: 26251204 Hash: 6C176D12F1DDB1D7D3535A6C5DFBB8F8 Accuracy: -m8
 Conclusion: CDDA 100%
 Signature: A169E85B7544A30AE17584AF16753DD53E3FB9DF

FILE: 06. Geronimo's Cadillac.flac
 Size: 24802395 Hash: FA3A9F2DB9BBB9461A07A9B805B40D6B Accuracy: -m8
 Conclusion: CDDA 100%
 Signature: BEC148131DAABD3F635241D0BA60682FACB74159

FILE: 07. We Take The Chance.flac
 Size: 33144821 Hash: E1CB24B060731DA6A057AB99201AD18C Accuracy: -m8
 Conclusion: CDDA 100%
 Signature: CB6DC3D4FA3478AB5D61E1B5543AC477C9C8DD74

FILE: 08. Jet Airliner.flac
 Size: 30984506 Hash: A9C339BB7E25572A0349E72112F51396 Accuracy: -m8
 Conclusion: CDDA 100%
 Signature: 01B27A2E1AA3ED661A77705103E62AF3F30FB480

FILE: 09. In 100 Years.flac
 Size: 31842560 Hash: FEC72DEF27C4C31CA73354A8B855467A Accuracy: -m8
 Conclusion: CDDA 100%
 Signature: CD11EFCB17C07B92F2041E4A1CC85048F22CADE8

FILE: 10. You Are Not Alone.flac
 Size: 29285845 Hash: 475EF77D3E2855602E605E1FBB65B71E Accuracy: -m8
 Conclusion: CDDA 99%
 Signature: 3FB5A10AC000C91ECFF1421C51102B2ECB25CF2A

FILE: 11. Sexy, Sexy Lover.flac
 Size: 28560666 Hash: 25DF193283A9C50C60989303C0811912 Accuracy: -m8
 Conclusion: CDDA 100%
 Signature: DC6EF2AE8778DAE11D9821C1EBAC9168F53E1456

FILE: 12. Last Exit To Brooklyn.flac
 Size: 27260578 Hash: 27F9F4AC3C37B7D22EA8FE506B59DBFB Accuracy: -m8
 Conclusion: CDDA 100%
 Signature: 17483CBDDB21A2C31A1805CAB562EFC9D2556D9B

FILE: 13. I Can't Give You More.flac
 Size: 27096898 Hash: 33356A9EBCAB2B3254F61AAF2C2B76BB Accuracy: -m8
 Conclusion: CDDA 100%
 Signature: 58351040AA2E8DEA0B30039D15B35CA08D67C106

FILE: 14. Don't Let Me Go.flac
 Size: 24272565 Hash: 13283920D59192F81C9311CCEC2A2F71 Accuracy: -m8
 Conclusion: CDDA 100%
 Signature: 9687D6AE8F6F3BF5E96677B303F3F16C4B18D704

FILE: 15. I'm So Much In Love.flac
 Size: 27430255 Hash: 7C96012B05441B0E1D87BA836395C30F Accuracy: -m8
 Conclusion: CDDA 42%
 Signature: 87A0CA59B2FB93C0FFC68CFA234B20ADD36530F9

FILE: 16. Rouge Et Noir.flac
 Size: 24506258 Hash: 49AEA6D58C63C290037261EBF0F04518 Accuracy: -m8
 Conclusion: CDDA 99%
 Signature: E3F5E2B7A34DC3709D38249B3E92C76259EE0808

FILE: 17. Can't Get Enough.flac
 Size: 27658987 Hash: E5EFC770EA2F95F522092AEFC46B862B Accuracy: -m8
 Conclusion: CDDA 100%
 Signature: 0E1DB4B93F1EFD20BBF019E07A9A53B2F06209AF

FILE: 18. Love Is Like A Rainbow.flac
 Size: 28176064 Hash: 06ACFD99B8C3318A63FC8B7943F6A939 Accuracy: -m8
 Conclusion: CDDA 100%
 Signature: 26B290794A04B152C86D40664CB03AE26089ADB8

FILE: 19. It Hurts So Good.flac
 Size: 24753766 Hash: 12530E73F6AA0B3C10D6601A8C7C839C Accuracy: -m8
 Conclusion: CDDA 100%
 Signature: A24F053B4BF39BBA3AA225A0F1267C1FF0260626

FILE: 20. I'll Never Give You Up.flac
 Size: 25326929 Hash: A5B45CFF435BC03B401FCD02823DC6BB Accuracy: -m8
 Conclusion: CDDA 100%
 Signature: 2F921A3F275F30DBD88AD6F500B77BD45E8BB23D

FILE: 21. Taxi Girl.flac
 Size: 24369654 Hash: EC74121B8604EF6FE0CC9571B98871BC Accuracy: -m8
 Conclusion: CDDA 100%
 Signature: 874DF92E607ABBC75DC2E6D6E15ADC5491E3F2E1

FILE: 22. China In Her Eyes.flac
 Size: 29759672 Hash: 47ACD0876565F2DBC7000A598CD10340 Accuracy: -m8
 Conclusion: CDDA 99%
 Signature: 518C661C26E16068D797230A4B3011FA9B2742B6

FILE: 23. Don't Take Away My Heart.flac
 Size: 28795271 Hash: B90D86524D1B2714B4854F70B43DD429 Accuracy: -m8
 Conclusion: CDDA 100%
 Signature: 23DCEDC62196D578BC4005174E3B9F883B4DFBF8

FILE: 24. Cosmic Girl.flac
 Size: 28284157 Hash: E570188F471721622E65426824A9C20F Accuracy: -m8
 Conclusion: CDDA 100%
 Signature: 82B32A800EFBF815859AB5E1F9BD29A3678CAAE3

FILE: 25. Part Time Lover.flac
 Size: 24714142 Hash: 16681B2E40A50231068E544CE1DA4719 Accuracy: -m8
 Conclusion: CDDA 100%
 Signature: 99FE625CDC9942CEB73339C2791934DC937CA8AC

FILE: 26. Fly To The Moon.flac
 Size: 28484580 Hash: F11AC7DE6F7E32431EBB28C2D4D8EAB3 Accuracy: -m8
 Conclusion: CDDA 100%
 Signature: A18606C9B95EFE290D3255B2CEEA18B10DF59F33

FILE: 27. Win The Race.flac
 Size: 30559567 Hash: DC28EDD28648E8E0D760709A212895D2 Accuracy: -m8
 Conclusion: CDDA 100%
 Signature: EE01485996E60E9C829FA7BBC28C85CC5C51357A

FILE: 28. Higher Than Heaven.flac
 Size: 30033360 Hash: AC1BA4BC4C83ABAFD45990F8325EAC27 Accuracy: -m8
 Conclusion: CDDA 100%
 Signature: 9B9B03298C4E6C87EAE7429CB07EA65F0F9166A4

FILE: 29. Ready For The Victory.flac
 Size: 29915334 Hash: 35DDEBC5CA8F2DF2D7E96AE7E1399CD2 Accuracy: -m8
 Conclusion: CDDA 100%
 Signature: D5B4A2E07FBB4A91C51230E2B0E8392020ECF9AE

FILE: 30. TV Makes The Superstar.flac
 Size: 31869372 Hash: DE359FCB5B2E3576F1CE5D2C9B8ECC5D Accuracy: -m8
 Conclusion: CDDA 100%
 Signature: 2751F797D85D95000C7133B4CE70918CC6156D16




[+] 03. Remastered & Long Versions

01. You're My Heart, You're My Soul (Remastered, Radio Version) (03:18)
02. You Can Win If You Want (Remastered) (03:50)
03. Cheri, Cheri Lady (Remastered) (03:48)
04. With A Little Love (Remastered) (03:34)
05. Brother Louie (Remastered) (03:42)
06. Let's Talk About Love (Remastered) (03:55)
07. Atlantis Is Calling (S.O.S. For Love) (Remastered) (03:50)
08. Lady Lai (Remastered) (04:59)
09. Geronimo's Cadillac (Remastered) (03:18)
10. Doctor For My Heart (Remastered) (03:20)
11. Jet Airliner (Remastered) (04:22)
12. Cheri, Cheri Lady (Special Dance Version) (04:50)
13. You Can Win If You Want (Special Dance Version) (05:17)
14. Atlantis Is Calling (S.O.S. For Love) (Extended Version) (05:21)
15. Brother Louie (Special Long Version) (05:19)
16. Geronimo's Cadillac (Long Vocal Version) (05:03)
17. Keep Love Alive (03:24)
18. In 100 Years (Long Version) (06:38)
19. Jet Airliner (Fasten-Seat-Belt-Mix) (05:52)
20. No. 1 Hit Medley (07:02)

DRM + Лог проверки качества
foobar2000 1.5.5 / Замер динамического диапазона (DR) 1.1.1

--------------------------------------------------------------------------------
Анализ:   Modern Talking / Remastered & Long Versions
--------------------------------------------------------------------------------

DR         Пики         RMS           Продолжительность трека
--------------------------------------------------------------------------------
DR7       -0.10 дБ    -8.23 дБ      3:18 01-You're My Heart, You're My Soul (Remastered, Radio Version)
DR9       -0.10 дБ    -9.92 дБ      3:50 02-You Can Win If You Want
DR8       -0.10 дБ    -9.04 дБ      3:48 03-Cheri Cheri Lady
DR8       -0.10 дБ    -9.80 дБ      3:35 04-With A Little Love
DR8       -0.10 дБ    -9.73 дБ      3:43 05-Brother Louie
DR8       -0.10 дБ    -9.42 дБ      3:55 06-Let's Talk About Love
DR8       -0.10 дБ   -10.28 дБ      3:50 07-Atlantis Is Calling (S.O.S. For Love )
DR7       -0.10 дБ    -9.77 дБ      4:59 08-Lady Lai
DR8       -0.10 дБ    -9.11 дБ      3:19 09-Geronimo's  Cadillac
DR9       -0.10 дБ   -10.42 дБ      3:20 10-Doctor For My Heart
DR9       -0.10 дБ    -9.81 дБ      4:22 11-Jet Airliner
DR6       -0.10 дБ    -8.54 дБ      4:50 12-Cheri, Cheri Lady (Special Dance Version)
DR8       -0.10 дБ    -8.63 дБ      5:17 13-You Can Win If You Want (Special Dance Version)
DR7       -0.02 дБ    -8.97 дБ      5:22 14-Atlantis Is Calling (S.O.S. For Love) (Extended Version)
DR7       -0.04 дБ    -8.16 дБ      5:19 15-Brother Louie (Special Long Version)
DR7       -0.39 дБ    -8.18 дБ      5:04 16-Geronimo's Cadillac (Long Vocal Version)
DR6       -0.90 дБ    -8.71 дБ      3:24 17-Keep Love Alive (Long Vocal Version)
DR9       -0.10 дБ    -9.59 дБ      6:38 18-In 100 Years (Long Version-Future Mix)
DR8       -0.26 дБ    -9.66 дБ      5:53 19-Jet Airliner (Fasten-Seat-Belt-Mix)
DR8       -0.09 дБ    -8.26 дБ      7:03 20-No. 1 Hit Medley
--------------------------------------------------------------------------------

Количество треков: 20
Реальные значения DR: DR8

Частота: 44100 Гц
Каналов: 2
Разрядность: 16
Битрейт: 1089 кбит/с
Кодек: FLAC
================================================================================

-----------------------

DON'T MODIFY THIS FILE

-----------------------

PERFORMER: auCDtect Task Manager, ver. 1.6.0 RC1 build 1.6.0.1
Copyright (c) 2008-2010 y-soft. All rights reserved
http://y-soft.org

ANALYZER: auCDtect: CD records authenticity detector, version 0.8.2
Copyright (c) 2004 Oleg Berngardt. All rights reserved.
Copyright (c) 2004 Alexander Djourik. All rights reserved.

FILE: 01. You're My Heart, You're My Soul (Remastered, Radio Version).flac
 Size: 25279170 Hash: ADB322F3B09DBA808FBACA5D96E467B3 Accuracy: -m8
 Conclusion: CDDA 100%
 Signature: C03836304C1C5985DB6D40D928060EC867F194F5

FILE: 02. You Can Win If You Want (Remastered).flac
 Size: 27908855 Hash: B79C003BB74F40A4294DE79F282C845C Accuracy: -m8
 Conclusion: CDDA 100%
 Signature: 1D77D4FA5CCD641CF24F2113552D10E9AB58BD24

FILE: 03. Cheri, Cheri Lady (Remastered).flac
 Size: 26782090 Hash: 228543EF7E8F31F4A24BF2BFA4005B73 Accuracy: -m8
 Conclusion: CDDA 100%
 Signature: E7DDED8C7D6BA4D211B71F95DA4F667D34CA6046

FILE: 04. With A Little Love (Remastered).flac
 Size: 25846785 Hash: 39A73CC82A2ED9DC472CD782CC5EE60E Accuracy: -m8
 Conclusion: CDDA 100%
 Signature: 726876D396555B0CD53EC06B2A08D8A6CD72902A

FILE: 05. Brother Louie (Remastered).flac
 Size: 27208331 Hash: 92E91401B2B062ECE63A78F9E8163928 Accuracy: -m8
 Conclusion: CDDA 100%
 Signature: BE9B59AC21CFB139B9774F98EC2F95E3820E66A1

FILE: 06. Let's Talk About Love (Remastered).flac
 Size: 28406896 Hash: 0BA942D48E95E4E879DFC44EA066B59B Accuracy: -m8
 Conclusion: CDDA 100%
 Signature: FFC5A84F540260C661070B4FEA95F31F9FAB13BE

FILE: 07. Atlantis Is Calling (S.O.S. For Love) (Remastered).flac
 Size: 28450662 Hash: 5CE6557279DC18E169CBE21515077DFE Accuracy: -m8
 Conclusion: CDDA 100%
 Signature: F0598A11449967F62F92AA931C46E9CCD624F6B0

FILE: 08. Lady Lai (Remastered).flac
 Size: 37870719 Hash: 498E8FF9D12C91AA3D789EDE10C57C8F Accuracy: -m8
 Conclusion: CDDA 100%
 Signature: 997CE6D3287E29BF9D5A5661553B15D18B0A8297

FILE: 09. Geronimo's Cadillac (Remastered).flac
 Size: 25425620 Hash: 0F70166C7E714FC827970F763620983C Accuracy: -m8
 Conclusion: CDDA 100%
 Signature: 01B66D9A1971E1433442E34036FD3D2F31D1278A

FILE: 10. Doctor For My Heart (Remastered).flac
 Size: 25898441 Hash: 248A2D81A3CBB488D3E905242981834A Accuracy: -m8
 Conclusion: CDDA 100%
 Signature: 7A4B0BDD3E273FB5A2B08EEAEEF31CAAE2B2D11C

FILE: 11. Jet Airliner (Remastered).flac
 Size: 32090304 Hash: C01B9F91C6AE010BB0680BA21ED34902 Accuracy: -m8
 Conclusion: CDDA 100%
 Signature: 71BEC704551281120AC239AC3CF9995783E5BEA2

FILE: 12. Cheri, Cheri Lady (Special Dance Version) .flac
 Size: 37267177 Hash: 55E9FAE9D46921B386E3BF2BBEFE91CA Accuracy: -m8
 Conclusion: CDDA 100%
 Signature: 6D2F9451B3C7F522D29794B9DFE9999E60736DFF

FILE: 13. You Can Win If You Want (Special Dance Version).flac
 Size: 43701323 Hash: 4882D7FE7077B4407F17E7ED4671FEE6 Accuracy: -m8
 Conclusion: CDDA 99%
 Signature: 2587B3B9F6FAA437E941FC8909979DD95DC822C2

FILE: 14. Atlantis Is Calling (S.O.S. For Love) (Extended Version).flac
 Size: 43842283 Hash: 71E038504D7F4DA64A831809DE6321E7 Accuracy: -m8
 Conclusion: CDDA 100%
 Signature: 75837B59FBCF1BE2DF4246D43EEED010EAF5A109

FILE: 15. Brother Louie (Special Long Version).flac
 Size: 41136624 Hash: 82D50574C7348616E0E280A902D2DADD Accuracy: -m8
 Conclusion: CDDA 100%
 Signature: D1418BE9139B80EFEA1E4FD8C845E0A424739507

FILE: 16. Geronimo's Cadillac (Long Vocal Version).flac
 Size: 40851735 Hash: 302675EE0EB0CC89ABB498AB5CB1379C Accuracy: -m8
 Conclusion: CDDA 99%
 Signature: 7473412925924A9AFEC537B06BFAF022C1D45E88

FILE: 17. Keep Love Alive.flac
 Size: 27558903 Hash: 5936FC6E3938F9113D93E91C2A1CD04D Accuracy: -m8
 Conclusion: CDDA 100%
 Signature: 5FC1733DD0E122611D79574DC1DA091831FAF17B

FILE: 18. In 100 Years (Long Version).flac
 Size: 55645511 Hash: 3D94764EF7D60F78E5894B8D3CF1B03D Accuracy: -m8
 Conclusion: CDDA 100%
 Signature: B98A3A3CF96BB0136FEC445400C267FEA9993645

FILE: 19. Jet Airliner (Fasten-Seat-Belt-Mix).flac
 Size: 45888071 Hash: 36008845FF817D3865DEB52EA567F86D Accuracy: -m8
 Conclusion: CDDA 100%
 Signature: F26ECF7A2C0AF90046386E43DD63502B49AC74A8

FILE: 20. No. 1 Hit Medley.flac
 Size: 57645073 Hash: 370BE78D8743D68DA44A511D63328EE8 Accuracy: -m8
 Conclusion: CDDA 99%
 Signature: 86F772BB1902DD281EB7B5EE5962200257157CC1



[+] Дополнительная информация

Оригинальные версии треков взяты с немецких и японских первопрессов. Новые версии и хиты без рэперских вставок


Всего файлов в раздаче: 94 
03. Remastered & Long Versions/20. No. 1 Hit Medley.flac54.97 MB
02.jpg142.88 kB
03.jpg127.22 kB
04.jpg289.16 kB
05.jpg53.08 kB
01. The Best - Original Versions/02. You Can Win If You Want.flac26.18 MB
01. The Best - Original Versions/03. Diamonds Never Made A Lady.flac27.61 MB
01. The Best - Original Versions/04. The Night Is Yours, The Night Is Mine.flac36.65 MB
01. The Best - Original Versions/05. Do You Wanna.flac28.95 MB
01. The Best - Original Versions/06. One In A Million.flac25.37 MB
Показать все файлы

Похожие раздачи по запросу - modern
2024-05-18 magnet Modern Boots - On Fire (2024) MP3 45.56 MB ↑ 0 ↓ 0
2024-04-07 magnet Call of Duty: Modern Warfare 2 (2009) PC | RePack от Canek77 23.30 GB ↑ 0 ↓ 0
2024-03-29 magnet Modern Talking - The Final Album (20 клипов) [eng subs] 1К1.19 GB ↑ 0 ↓ 0
2024-03-16 magnet Call of Duty: Modern Warfare - Remastered [v 1.15.1251288.0] (2016) PC | RePack от Canek77 61.70 GB ↑ 0 ↓ 0
2022-12-12 magnet Modern Talking - Greatest Hits In Remix (2022) MP3 400.62 MB ↑ 0 ↓ 0
2021-12-04 magnet VA - Best of Smooth Lounge, Vol. 1-2 [A Finest Selection of Chill & Modern Bar Tracks] (2020-2021) MP3 334.91 MB ↑ 0 ↓ 0
2021-11-26 magnet VA - Post Modern Lounge 1-2 [A Selection of Today's Hits in a New Lounge Version] (2015-2021) MP3 1К454.60 MB ↑ 0 ↓ 0

Кто качает (только для создателя раздачи и модераторов): Локальные пиры отсутствуют

Комментарии


Зарегистрируйтесь чтобы добавить комментарий
Торрент клиент
byTorrent - программа для загрузки торрент-файлов.

Скачать byTorrent.exe (1,5 МБ)

Скачать byTorrent.zip (0,6 МБ)

Поддержи torrent.by
российских рублей
(300 российских рублей это 4$)

Обратная связь rss

End game ©