↑↓torrent.by
Поиск
Логин:  Регистрация
Пароль:

Гром: Трудное детство (2022) WEB-DL 1080p

download Скачать торрент-файл   magnet Магнитная ссылка Размер: 2.65 GB Раздают: 1 Качают: 0 Добавлен: 2023-01-02 04:07
Пиры будут получены из сети DHT
Последний сидер был замечен сегодня в 08:34




Информация о фильме
Название: Гром: Трудное детство
Год выхода: 2022
Жанр: Приключения, боевик
Режиссер: Олег Трофим
В ролях: Кай Гетц, Сергей Марин, Алексей Ведерников, Владимир Яганов, Даниил Воробьев, Ирина Розанова, Алексей Тахаров, Антон Адасинский, Игорь Усачев, Александр Гаранин, Даниил Молчанов

О фильме:
Юный Игорь Гром ищет варианты срочно заработать большую сумму и ввязывается в сомнительную авантюру на пару с другом Игнатом. Тем временем его отец вместе с будущим начальником петербургской полиции Фёдором Прокопенко охотится за боссом криминального мира по прозвищу Анубис.


IMBD

Страна: Россия
Студия: Плюс Студия, Bubble Studios
Продолжительность: 01:25:24
Язык: Русский

Премьера в Росcии: 01 января 2023 года
Цифровой релиз: 01 января 2023 года
Примечание: Присутствует анонс от Кинопоиск
Возраст: 16+

Файл
Формат: MKV
Качество: WEB-DL 1080p
Видео: MPEG-4 AVC, ~ 4000 Кбит/с, 1920x872
Звук: E-AC3, 6 ch, 448 Кбит/с
Субтитры: Русские (полные, SDH)
Семпл

[+] Скриншоты

[+] MI
Общее
Уникальный идентификатор : 163416497389943154153893390804672860696 (0x7AF0DF60F1FB6D2E25F987B1E4245218)
Полное имя : C:Grom.Trudnoe.detstvo.2022.WEBRip.1080p.mkv
Формат : Matroska
Версия формата : Version 4
Размер файла : 2,65 Гбайт
Продолжительность : 1 ч. 25 м.
Общий поток : 4 439 Кбит/сек
Название фильма : Grom.Trudnoe.detstvo.2022.WEBRip.1080p
Дата кодирования : UTC 2023-01-01 17:27:53
Программа кодирования : mkvmerge v72.0.0 ('Minuano (Six-eight)') 64-bit
Библиотека кодирования : libebml v1.4.4 + libmatroska v1.7.1
Attachments : poster.jpg

Видео
Идентификатор : 1
Формат : AVC
Формат/Информация : Advanced Video Codec
Профиль формата : High@L4
Настройки формата : CABAC / 4 Ref Frames
Параметр CABAC формата : Да
Параметр RefFrames формата : 4 кадра
Идентификатор кодека : V_MPEG4/ISO/AVC
Продолжительность : 1 ч. 25 м.
Битрейт : 3 988 Кбит/сек
Номинальный битрейт : 6 000 Кбит/сек
Ширина : 1 920 пикселей
Высота : 872 пикселя
Соотношение сторон : 2,2:1
Режим частоты кадров : Постоянный
Частота кадров : 24,000 кадра/сек
Цветовое пространство : YUV
Субдискретизация насыщенности : 4:2:0
Битовая глубина : 8 бит
Тип развёртки : Прогрессивная
Бит/(Пиксели*Кадры) : 0.099
Размер потока : 2,38 Гбайт (90%)
Библиотека кодирования : x264 core 157
Настройки программы : cabac=1 / ref=4 / deblock=1:0:0 / analyse=0x3:0x133 / me=umh / subme=10 / psy=1 / psy_rd=1.00:0.00 / mixed_ref=1 / me_range=24 / chroma_me=1 / trellis=2 / 8x8dct=1 / cqm=0 / deadzone=21,11 / fast_pskip=1 / chroma_qp_offset=-2 / threads=27 / lookahead_threads=4 / sliced_threads=0 / nr=0 / decimate=1 / interlaced=0 / bluray_compat=0 / stitchable=1 / constrained_intra=0 / bframes=8 / b_pyramid=2 / b_adapt=2 / b_bias=0 / direct=3 / weightb=1 / open_gop=0 / weightp=2 / keyint=250 / keyint_min=24 / scenecut=40 / intra_refresh=0 / rc_lookahead=96 / rc=abr / mbtree=1 / bitrate=6000 / ratetol=1.0 / qcomp=0.60 / qpmin=0 / qpmax=69 / qpstep=4 / vbv_maxrate=6600 / vbv_bufsize=12000 / nal_hrd=none / filler=0 / ip_ratio=1.40 / aq=1:1.00
Default : Да
Forced : Нет

Аудио
Идентификатор : 2
Формат : E-AC-3
Формат/Информация : Enhanced AC-3
Коммерческое название : Dolby Digital Plus
Идентификатор кодека : A_EAC3
Продолжительность : 1 ч. 25 м.
Вид битрейта : Постоянный
Битрейт : 448 Кбит/сек
Каналы : 6 каналов
Channel layout : L R C LFE Ls Rs
Частота : 48,0 КГц
Частота кадров : 31,250 кадров/сек (1536 SPF)
Метод сжатия : С потерями
Размер потока : 274 Мбайт (10%)
Заголовок : [Original | 5.1 E-AC3 Audio]
Язык : Russian
Service kind : Complete Main
Default : Да
Forced : Нет

Текст #1
Идентификатор : 3
Формат : UTF-8
Идентификатор кодека : S_TEXT/UTF8
Идентификатор кодека/Информация : UTF-8 Plain Text
Продолжительность : 1 ч. 18 м.
Битрейт : 69 бит/сек
Частота кадров : 0,168 кадр/сек
Count of elements : 789
Размер потока : 39,7 Кбайт (0%)
Заголовок : [Full]
Язык : Russian
Default : Нет
Forced : Нет

Текст #2
Идентификатор : 4
Формат : UTF-8
Идентификатор кодека : S_TEXT/UTF8
Идентификатор кодека/Информация : UTF-8 Plain Text
Продолжительность : 1 ч. 22 м.
Битрейт : 84 бит/сек
Частота кадров : 0,199 кадр/сек
Count of elements : 979
Размер потока : 50,9 Кбайт (0%)
Заголовок : [SDH]
Язык : Russian
Default : Нет
Forced : Нет

Всего файлов в раздаче: 1 
Grom.Trudnoe.detstvo.2022.WEBRip.1080p.mkv2.65 GB

Похожие раздачи по запросу - Гром
2024-05-05 magnet Василий Лазарев - S-T-I-K-S. Гром [Книга 2] (2024) МР3 408.64 MB ↑ 0 ↓ 0
2021-05-19 magnet Майор Гром: Чумной Доктор (2021) WEB-DL 1080p от EniaHD 4.82 GB ↑ 0 ↓ 0
2021-05-19 magnet Майор Гром: Чумной Доктор (2021) WEB-DLRip от MegaPeer 1.47 GB ↑ 0 ↓ 0

Комментарии


Зарегистрируйтесь чтобы добавить комментарий
Торрент клиент
byTorrent - программа для загрузки торрент-файлов.

Скачать byTorrent.exe (1,5 МБ)

Скачать byTorrent.zip (0,6 МБ)

Поддержи torrent.by
российских рублей
(300 российских рублей это 4$)

Обратная связь rss

End game ©