↑↓torrent.by
Поиск
Логин:  Регистрация
Пароль:

Sweet - Sweet Fanny Adams [24-bit Hi-Res] (1974) FLAC

download Скачать торрент-файл   magnet Магнитная ссылка Размер: 874.89 MB Раздают: 1 Качают: 0 Добавлен: 2023-01-27 12:18
Пиры будут получены из сети DHT
Последний сидер был замечен сегодня в 15:56




Название: Sweet Fanny Adams
Исполнитель: Sweet
Год: 1974
Жанр: Rock
Издатель (лейбл): RCA Victor

Продолжительность: 00:39:07
Формат/Кодек: FLAC
Тип рипа: Tracks
Битрейт аудио: Lossless
Разрядность: 24 Bit/96 kHz



[+] Трек-лист

01. Set Me Free
02. Heartbreak Today
03. No You Don't
04. Rebel Rouser
05. Peppermint Twist
06. Sweet F. A.
07. Restless
08. In To The Night
09. AC-DC

[+] DRM

foobar2000 1.5.5 / Замер динамического диапазона (DR) 1.1.1
-------------------------------------------------------------------------------
Анализ: Sweet / Sweet Fanny Adams (UK)
--------------------------------------------------------------------------------

DR Пики RMS Продолжительность трека
--------------------------------------------------------------------------------
DR13 -1.60 дБ -16.15 дБ 3:57 01-Set Me Free
DR13 -1.00 дБ -15.63 дБ 5:04 02-Heartbreak Today
DR14 -1.04 дБ -17.66 дБ 4:35 03-No You Don't
DR13 -3.01 дБ -17.33 дБ 3:25 04-Rebel Rouser
DR13 -3.73 дБ -18.35 дБ 3:30 05-Peppermint Twist
DR13 -1.56 дБ -16.83 дБ 6:15 06-Sweet F. A.
DR13 -2.72 дБ -17.27 дБ 4:30 07-Restless
DR12 -2.65 дБ -17.77 дБ 4:24 08-In To The Night
DR14 -1.00 дБ -16.61 дБ 3:27 09-AC-DC
--------------------------------------------------------------------------------

Количество треков: 9
Реальные значения DR: DR13

Частота: 96000 Гц
Каналов: 2
Разрядность: 24
Битрейт: 3105 кбит/с
Кодек: FLAC
================================================================================



Всего файлов в раздаче: 10 
01. Sweet - Set Me Free.flac89.50 MB
02. Sweet - Heartbreak Today.flac112.08 MB
03. Sweet - No You Don't.flac103.13 MB
04. Sweet - Rebel Rouser.flac76.77 MB
05. Sweet - Peppermint Twist.flac78.05 MB
06. Sweet - Sweet F. A..flac141.37 MB
07. Sweet - Restless.flac99.14 MB
08. Sweet - In To The Night.flac98.21 MB
09. Sweet - AC-DC.flac76.57 MB
Cover.jpg77.59 kB

Похожие раздачи по запросу - Sweet
2024-06-10 magnet Sweet Tooth: Мальчик с оленьими рогами / Сладкоежка / Sweet Tooth [S03] (2024) WEB-DL 1080p от Jaskier | P 13.41 GB ↑ 0 ↓ 2
2024-06-09 magnet Sweet Tooth: Мальчик с оленьими рогами / Сладкоежка / Sweet Tooth [03x01-04 из 08] (2024) WEB-DL 1080p от Jaskier | P 7.60 GB ↑ 0 ↓ 0
2024-06-07 magnet Sweet Tooth: Мальчик с оленьими рогами / Сладкоежка / Sweet Tooth [S03] (2024) WEBRip 1080p от Kerob | L2 14.04 GB ↑ 0 ↓ 1
2024-06-07 magnet Sweet Tooth: Мальчик с оленьими рогами / Сладкоежка / Sweet Tooth [S03] (2024) WEBRip от Kerob | L2 3.02 GB ↑ 0 ↓ 0
2024-06-01 magnet Сладкая парочка / Daljjakjigeunhae: 7510 / Honey Sweet (2023) WEB-DL 1080p | D 5.44 GB ↑ 0 ↓ 0
2024-05-25 magnet Дом, милый ад / Home Sweet Hell (2015) ВDRip 1080р | iTunes 10.65 GB ↑ 0 ↓ 0
2024-05-15 magnet Sweet Ermengarde - Discography (2013-2024) MP3 518.06 MB ↑ 0 ↓ 0

Комментарии

skandev Оценка: 10
ty


Зарегистрируйтесь чтобы добавить комментарий
Торрент клиент
byTorrent - программа для загрузки торрент-файлов.

Скачать byTorrent.exe (1,5 МБ)

Скачать byTorrent.zip (0,6 МБ)

Поддержи torrent.by
российских рублей
(300 российских рублей это 4$)

Обратная связь rss

End game ©