↑↓torrent.by
Поиск
Логин:  Регистрация
Пароль:

Сын / The Son (2022) WEB-DLRip-AVC от ExKinoRay | D

download Скачать торрент-файл   magnet Магнитная ссылка Размер: 743.74 MB Добавлен: 2023-03-15 18:07
Пиры будут получены из сети DHT
Последний сидер был замечен сегодня в 00:04




Информация о фильме
Название: Сын
Оригинальное название: The Son
Жанр: Драма
Режиссер: Флориан Зеллер
Продюсер: Эйн Каннинг, Джоэнна Лори, Эмиль Шерман
В ролях: Хью Джекман, Лора Дерн, Ванесса Кирби, Зен МакГрат, Энтони Хопкинс, Феликс Годдард, Макс Годдард, Шин-Фэй Чен, Уильям Хоуп, Нэнси Болдуин

О фильме:
Нью-Йорк. Питер переживает напряженный период отношений с его новой партнершей Бет и их маленьким ребенком. Ситуация осложняется, когда появляется его бывшая жена с сыном-подростком Николасом. Тот встревожен, отстранен и зол, он месяцами прогуливает школу. Питер стремится быть хорошим отцом, пытаясь помочь своему сыну в обретении моментов семейного счастья. Но тяжесть состояния Николаса ставит семью на опасный курс.

IMBD

Страна: Великобритания, Франция
Студия: Ciné@, Embankment Films, Film4, Ingenious Film Partners, Neddy Dean Productions, Orange Studio
Продолжительность: 02:03:18
Перевод: Дубляж [Paragraph Media]

Файл
Формат: MKV
Качество: WEB-DLRip-AVC
Видео: MPEG-4 AVC, 692x308, 760 Кбит/с
Аудио: AAC-HE, 2 ch, 84 Кбит/с
Субтитры: Русские (promt), английские

[+] MI
Общее
Уникальный идентификатор : 83188628238701555021942912748875830953 (0x3E958C09393F3F7E2C3A0E5B280256A9)
Полное имя : D:MOVIESThe.Son.2022.WEB-DLRip-AVC.ExKinoRay.mkv
Формат : Matroska
Версия формата : Version 4
Размер файла : 744 Мбайт
Продолжительность : 2 ч. 3 м.
Общий поток : 843 Кбит/сек
Дата кодирования : UTC 2023-03-15 04:22:58
Программа кодирования : mkvmerge v48.0.0 ('Fortress Around Your Heart') 64-bit
Библиотека кодирования : libebml v1.4.0 + libmatroska v1.6.0

Видео
Идентификатор : 1
Формат : AVC
Формат/Информация : Advanced Video Codec
Профиль формата : High@L4.1
Настройки формата : CABAC / 11 Ref Frames
Параметр CABAC формата : Да
Параметр RefFrames формата : 11 кадров
Идентификатор кодека : V_MPEG4/ISO/AVC
Продолжительность : 2 ч. 3 м.
Битрейт : 760 Кбит/сек
Ширина : 692 пикселя
Высота : 308 пикселей
Соотношение сторон : 2,25:1
Режим частоты кадров : Постоянный
Частота кадров : 24,000 кадра/сек
Цветовое пространство : YUV
Субдискретизация насыщенности : 4:2:0
Битовая глубина : 8 бит
Тип развёртки : Прогрессивная
Бит/(Пиксели*Кадры) : 0.149
Размер потока : 668 Мбайт (90%)
Библиотека кодирования : x264 core 164 r3081 19856cc
Настройки программы : cabac=1 / ref=11 / deblock=1:-2:-2 / analyse=0x3:0x133 / me=umh / subme=10 / psy=1 / psy_rd=1.05:0.14 / mixed_ref=1 / me_range=32 / chroma_me=1 / trellis=2 / 8x8dct=1 / cqm=0 / deadzone=21,11 / fast_pskip=0 / chroma_qp_offset=-3 / threads=6 / lookahead_threads=1 / sliced_threads=0 / nr=0 / decimate=0 / interlaced=0 / bluray_compat=0 / constrained_intra=0 / bframes=11 / b_pyramid=2 / b_adapt=2 / b_bias=0 / direct=3 / weightb=1 / open_gop=0 / weightp=2 / keyint=240 / keyint_min=24 / scenecut=40 / intra_refresh=0 / rc=2pass / mbtree=0 / bitrate=760 / ratetol=1.0 / qcomp=0.60 / qpmin=0 / qpmax=69 / qpstep=4 / cplxblur=20.0 / qblur=0.5 / ip_ratio=1.40 / pb_ratio=1.30 / aq=3:1.00
Язык : English
Default : Да
Forced : Нет
Цветовой диапазон : Limited
Основные цвета : BT.709
Характеристики трансфера : BT.709
Коэффициенты матрицы : BT.709

Аудио
Идентификатор : 2
Формат : AAC LC SBR
Формат/Информация : Advanced Audio Codec Low Complexity with Spectral Band Replication
Коммерческое название : HE-AAC
Настройки формата : Explicit
Идентификатор кодека : A_AAC-2
Продолжительность : 2 ч. 3 м.
Битрейт : 84,0 Кбит/сек
Каналы : 2 канала
Channel layout : L R
Частота : 48,0 КГц
Частота кадров : 23,438 кадра/сек (2048 SPF)
Метод сжатия : С потерями
Задержка видео : 31 мс.
Размер потока : 74,1 Мбайт (10%)
Язык : Russian
Default : Да
Forced : Нет

Текст #1
Идентификатор : 3
Формат : UTF-8
Идентификатор кодека : S_TEXT/UTF8
Идентификатор кодека/Информация : UTF-8 Plain Text
Продолжительность : 1 ч. 53 м.
Битрейт : 105 бит/сек
Частота кадров : 0,211 кадр/сек
Count of elements : 1443
Размер потока : 87,6 Кбайт (0%)
Заголовок : promt
Язык : Russian
Default : Нет
Forced : Нет

Текст #2
Идентификатор : 4
Формат : UTF-8
Идентификатор кодека : S_TEXT/UTF8
Идентификатор кодека/Информация : UTF-8 Plain Text
Продолжительность : 1 ч. 53 м.
Битрейт : 59 бит/сек
Частота кадров : 0,211 кадр/сек
Count of elements : 1444
Размер потока : 49,6 Кбайт (0%)
Заголовок : Full
Язык : English
Default : Нет
Forced : Нет

Меню
00:00:00.000 : en:Chapter 01
00:20:02.125 : en:Chapter 02
00:38:51.708 : en:Chapter 03
00:59:24.916 : en:Chapter 04
01:18:07.916 : en:Chapter 05
01:38:16.833 : en:Chapter 06
01:56:34.416 : en:Chapter 07

[+] Скриншоты





Всего файлов в раздаче: 1 
The.Son.2022.WEB-DLRip-AVC.ExKinoRay.mkv743.74 MB

Похожие раздачи по запросу - Сын
2024-05-13 magnet Сын француза / Le fils du Français (1999) WEB-DLRip-AVC от ExKinoRay | P 1.85 GB ↑ 0 ↓ 0
2024-04-14 magnet Последний сын / The Last Son (2021) HDRip-AVC от DoMiNo | A 1.45 GB ↑ 0 ↓ 0
2023-10-11 magnet Флора и сын / Flora and Son (2023) WEB-DLRip-AVC | TVShows 1.67 GB ↑ 0 ↓ 0

Комментарии


Зарегистрируйтесь чтобы добавить комментарий
Торрент клиент
byTorrent - программа для загрузки торрент-файлов.

Скачать byTorrent.exe (1,5 МБ)

Скачать byTorrent.zip (0,6 МБ)

Поддержи torrent.by
российских рублей
(300 российских рублей это 4$)

Обратная связь rss

End game ©