↑↓torrent.by
Поиск
Логин:  Регистрация
Пароль:

Между жизнью и смертью / Átjáróház / Passage House (2022) WEB-DLRip | L

download Скачать торрент-файл   magnet Магнитная ссылка Размер: 1.43 GB Добавлен: 2023-05-24 13:57
Пиры будут получены из сети DHT
Последний сидер был замечен сегодня в 02:03




Информация о фильме
Название: Между жизнью и смертью
Оригинальное название: Átjáróház / Passage House
Год выпуска: 2022
Жанр: фэнтези, мелодрама
Выпущено: Венгрия / FocusFox Studio
Режиссер: Иштван Мадарас
В ролях: Аттила Арпа, Máté Borsi-Balogh, Péter Bárnai, Терез Чомбор, Лидия Даниш, Ката Добо, Миклош Галла, Янош Кулька, Эржебет Кутвёлдьи, Аттила Лештьян

Описание:
Ночной охранник в морге избран, чтобы помочь мертвым завершить их незаконченные дела на Земле. Однажды там появляется девушка его мечты.

IMBD

Продолжительность: 01:43:34
Перевод: Многоголосый любительский (AlphaProject)
Субтитры: отсутствуют

Файл
Формат: AVI
Качество: WEB-DLRip
Видео: Xvid, 720x304 (2.35:1), ~1770 Kbps
Аудио: AC3, 2 ch, 192 Kbps - русский
Рекламы нет
Релиз от: Alexandr

[+] MediaInfo:
Общее
Полное имя : D:Atjarohaz (2022).by.Alexandr.avi
Формат : AVI
Формат/Информация : Audio Video Interleave
Профиль формата : OpenDML
Настройки формата : BitmapInfoHeader / WaveFormatEx
Размер файла : 1,43 Гбайт
Продолжительность : 1 ч. 43 м.
Общий поток : 1 976 Кбит/сек
Частота кадров : 24,000 кадра/сек
Программа кодирования : Lavf58.45.100

Видео
Идентификатор : 0
Формат : MPEG-4 Visual
Профиль формата : Advanced Simple@L5
Настройки формата : BVOP2
Параметр BVOP формата : 2
Параметр QPel формата : Нет
Параметр GMC формата : Без точки перехода
Параметр матрицы формата : Default (MPEG)
Идентификатор кодека : XVID
Идентификатор кодека/Подсказка : XviD
Продолжительность : 1 ч. 43 м.
Битрейт : 1 772 Кбит/сек
Ширина : 720 пикселей
Высота : 304 пикселя
Соотношение сторон : 2,35:1
Частота кадров : 24,000 кадра/сек
Цветовое пространство : YUV
Субдискретизация насыщенности : 4:2:0
Битовая глубина : 8 бит
Тип развёртки : Прогрессивная
Метод сжатия : С потерями
Бит/(Пиксели*Кадры) : 0.337
Размер потока : 1,28 Гбайт (90%)
Библиотека кодирования : XviD 69

Аудио
Идентификатор : 1
Формат : AC-3
Формат/Информация : Audio Coding 3
Коммерческое название : Dolby Digital
Идентификатор кодека : 2000
Продолжительность : 1 ч. 43 м.
Вид битрейта : Постоянный
Битрейт : 192 Кбит/сек
Каналы : 2 канала
Channel layout : L R
Частота : 48,0 КГц
Частота кадров : 31,250 кадров/сек (1536 SPF)
Битовая глубина : 16 бит
Метод сжатия : С потерями
Размер потока : 142 Мбайт (10%)
Выравнивание : Соединение по промежуткам
Продолжительность промежутка : 32 мс. (0,77 видеокадр)
Service kind : Complete Main

[+] Скриншоты

Всего файлов в раздаче: 1 
Atjarohaz (2022).by.Alexandr.avi1.43 GB

Похожие раздачи по запросу - Между
2024-06-03 magnet Время между нами / Press Play (2022) BDRip-AVC от DoMiNo & селезень | D 1.89 GB ↑ 0 ↓ 0
2024-05-29 magnet Макстон холл - мир между нами / Maxton Hall - Die Welt zwischen uns [S01] (2023) WEBRip-HEVC 1080p | L | RuDub 2.67 GB ↑ 0 ↓ 0
2024-05-29 magnet Макстон холл - мир между нами / Maxton Hall - Die Welt zwischen uns [S01] (2023) WEBRip 1080p | L | RuDub 13.98 GB ↑ 0 ↓ 0
2024-05-17 magnet Александр Чаусов, Алексей Громский - Интербеллум 1918–1939. Мир между великими войнами (2020) MP3 693.36 MB ↑ 0 ↓ 0
2024-05-17 magnet Между ног / Entre las piernas / Between Your Legs (1999) WEB-DLRip-AVC от DoMiNo & селезень | P 1.46 GB ↑ 0 ↓ 0
2024-05-08 magnet Между нами лето (2024) WEB-DL 720p 2.43 GB ↑ 0 ↓ 0
2024-05-08 magnet Между нами лето (2024) WEB-DL 1080p 4.34 GB ↑ 0 ↓ 0

Кто качает (только для создателя раздачи и модераторов): Локальные пиры отсутствуют

Комментарии


Зарегистрируйтесь чтобы добавить комментарий
Торрент клиент
byTorrent - программа для загрузки торрент-файлов.

Скачать byTorrent.exe (1,5 МБ)

Скачать byTorrent.zip (0,6 МБ)

Поддержи torrent.by
российских рублей
(300 российских рублей это 4$)

Обратная связь rss

End game ©