↑↓torrent.by
Поиск
Логин:  Регистрация
Пароль:

Отряд самоубийц: Миссия навылет / The Suicide Squad (2021) WEB-DLRip-AVC от MediaBit | iTunes

download Скачать торрент-файл   magnet Магнитная ссылка Размер: 2.62 GB Добавлен: 2021-09-02 18:15
Пиры будут получены из сети DHT
Последний сидер был замечен 2024-06-17 16:34
Отряд самоубийц: Миссия навылет / The Suicide Squad (2021) WEB-DLRip-AVC от MediaBit | iTunes

Отряд самоубийц: Миссия навылет / The Suicide Squad



Информация о фильме:
Название:  Отряд самоубийц: Миссия навылет
Оригинальное название:  The Suicide Squad
Год выхода: 2021
Жанр: боевик, фантастика, комедия, фэнтези
Режиссер:  Джеймс Ганн
В ролях:   Идрис Эльба, Марго Робби, Джон Сина, Юэль Киннаман, Даниэла Мелшиор, Питер Капальди, Давид Дастмалчян, Сильвестр Сталлоне, Виола Дэвис, Алиси Брага

Описание:   Отобрав наиболее перспективных заключенных из тюрьмы, в которой содержатся не только самые опасные преступники, но и люди со свехрспособностями, и даже не люди, правительственный агент отправляет их на самоубийственное задание в одну латиноамериканскую страну, где недавно произошел военный переворот. А чтобы те наверняка не сбежали, каждому в голову вживляется взрывное устройство.
 
 

Страна:  США, Канада, Великобритания
Студия:  Atlas Entertainment, DC Entertainment, Safran Company, The, Warner Bros.
Продолжительность:  02:12:02
Перевод:  Дублированный - iTunes



Информация о файле:
Кодек: AVC
Формат: MKV
Качество: WEB-DLRip-AVC
Видео: MPEG-4 AVC,  1024x540, 23.976 fps, 2001 kb/s
Аудио RU:  AC3, 6 ch, 48 kHz, 384 kbps  
Аудио EN:  AC3, 6 ch, 48 kHz, 448 kbps  
Субтитры: Русские (Forced, 2 x full), английские

 




Релиз: &  

Автор релиза:


[+] MediaInfo
x264 info: frame I:1615  Avg QP:16.15  size: 79487 [url=/tag/1/][/url]
x264 info: frame P:51920 Avg QP:19.70  size: 21206 [url=/tag/1/][/url]
x264 info: frame B:136417 Avg QP:21.70  size:  5481 [url=/tag/1/][/url]
General [url=/tag/1/][/url]
Unique ID                                : 8880893011356202608229825665235732903 (0x6AE65D4CD3F86B76C77DC1BE464C9A7) [url=/tag/1/][/url]
Complete name                            : D:uTorrentРипы wolf1245The.Suicide.Squad.2021.DUB.iTUNES.WEB-DLRip-AVC.[=wolf1245.MediaBit=].mkv [url=/tag/1/][/url]
Format                                   : Matroska [url=/tag/1/][/url]
Format version                           : Version 4 [url=/tag/1/][/url]
File size                                : 2.62 GiB [url=/tag/1/][/url]
Duration                                 : 2 h 12 min [url=/tag/1/][/url]
Overall bit rate                         : 2 823 kb/s [url=/tag/1/][/url]
Movie name                               : The.Suicide.Squad.2021.DUB.iTUNES.WEB-DLRip-AVC.[=wolf1245.MediaBit=] [url=/tag/1/][/url]
Encoded date                             : UTC 2021-09-02 09:36:28 [url=/tag/1/][/url]
Writing application                      : mkvmerge v61.0.0 ('So') 64-bit [url=/tag/1/][/url]
Writing library                          : libebml v1.4.2 + libmatroska v1.6.4 [url=/tag/1/][/url]
[url=/tag/1/][/url]
Video [url=/tag/1/][/url]
ID                                       : 1 [url=/tag/1/][/url]
Format                                   : AVC [url=/tag/1/][/url]
Format/Info                              : Advanced Video Codec [url=/tag/1/][/url]
Format profile                           : High@L4.1 [url=/tag/1/][/url]
Format settings                          : CABAC / 12 Ref Frames [url=/tag/1/][/url]
Format settings, CABAC                   : Yes [url=/tag/1/][/url]
Format settings, Reference frames        : 12 frames [url=/tag/1/][/url]
Codec ID                                 : V_MPEG4/ISO/AVC [url=/tag/1/][/url]
Duration                                 : 2 h 12 min [url=/tag/1/][/url]
Bit rate                                 : 2 001 kb/s [url=/tag/1/][/url]
Width                                    : 1 024 pixels [url=/tag/1/][/url]
Height                                   : 540 pixels [url=/tag/1/][/url]
Display aspect ratio                     : 1.896 [url=/tag/1/][/url]
Frame rate mode                          : Constant [url=/tag/1/][/url]
Frame rate                               : 23.976 (24000/1001) FPS [url=/tag/1/][/url]
Color space                              : YUV [url=/tag/1/][/url]
Chroma subsampling                       : 4:2:0 [url=/tag/1/][/url]
Bit depth                                : 8 bits [url=/tag/1/][/url]
Scan type                                : Progressive [url=/tag/1/][/url]
Bits/(Pixel*Frame)                       : 0.151 [url=/tag/1/][/url]
Stream size                              : 1.85 GiB (71%) [url=/tag/1/][/url]
Title                                    : -=[wolf1245.MediaBit]=- [url=/tag/1/][/url]
Writing library                          : x264 core 161 r3020 d198931 [url=/tag/1/][/url]
Encoding settings                        : cabac=1 / ref=12 / deblock=1:-3:-2 / analyse=0x3:0x133 / me=umh / subme=10 / psy=1 / psy_rd=1.02:0.05 / mixed_ref=1 / me_range=32 / chroma_me=1 / trellis=2 / 8x8dct=1 / cqm=0 / deadzone=21,11 / fast_pskip=1 / chroma_qp_offset=-3 / threads=10 / lookahead_threads=2 / sliced_threads=0 / nr=0 / decimate=1 / interlaced=0 / bluray_compat=0 / constrained_intra=0 / bframes=12 / b_pyramid=2 / b_adapt=2 / b_bias=0 / direct=3 / weightb=1 / open_gop=0 / weightp=2 / keyint=240 / keyint_min=24 / scenecut=40 / intra_refresh=0 / rc_lookahead=60 / rc=2pass / mbtree=1 / bitrate=2001 / ratetol=1.0 / qcomp=0.60 / qpmin=0 / qpmax=69 / qpstep=4 / cplxblur=20.0 / qblur=0.5 / vbv_maxrate=50000 / vbv_bufsize=62500 / nal_hrd=none / filler=0 / ip_ratio=1.40 / aq=3:0.80 [url=/tag/1/][/url]
Language                                 : English [url=/tag/1/][/url]
Default                                  : Yes [url=/tag/1/][/url]
Forced                                   : No [url=/tag/1/][/url]
Color range                              : Limited [url=/tag/1/][/url]
Color primaries                          : BT.709 [url=/tag/1/][/url]
Transfer characteristics                 : BT.709 [url=/tag/1/][/url]
Matrix coefficients                      : BT.709 [url=/tag/1/][/url]
[url=/tag/1/][/url]
Audio #1 [url=/tag/1/][/url]
ID                                       : 2 [url=/tag/1/][/url]
Format                                   : AC-3 [url=/tag/1/][/url]
Format/Info                              : Audio Coding 3 [url=/tag/1/][/url]
Commercial name                          : Dolby Digital [url=/tag/1/][/url]
Codec ID                                 : A_AC3 [url=/tag/1/][/url]
Duration                                 : 2 h 12 min [url=/tag/1/][/url]
Bit rate mode                            : Constant [url=/tag/1/][/url]
Bit rate                                 : 384 kb/s [url=/tag/1/][/url]
Channel(s)                               : 6 channels [url=/tag/1/][/url]
Channel layout                           : L R C LFE Ls Rs [url=/tag/1/][/url]
Sampling rate                            : 48.0 kHz [url=/tag/1/][/url]
Frame rate                               : 31.250 FPS (1536 SPF) [url=/tag/1/][/url]
Compression mode                         : Lossy [url=/tag/1/][/url]
Stream size                              : 365 MiB (14%) [url=/tag/1/][/url]
Title                                    : Dub | iTunes [url=/tag/1/][/url]
Language                                 : Russian [url=/tag/1/][/url]
Service kind                             : Complete Main [url=/tag/1/][/url]
Default                                  : Yes [url=/tag/1/][/url]
Forced                                   : No [url=/tag/1/][/url]
[url=/tag/1/][/url]
Audio #2 [url=/tag/1/][/url]
ID                                       : 3 [url=/tag/1/][/url]
Format                                   : AC-3 [url=/tag/1/][/url]
Format/Info                              : Audio Coding 3 [url=/tag/1/][/url]
Commercial name                          : Dolby Digital [url=/tag/1/][/url]
Codec ID                                 : A_AC3 [url=/tag/1/][/url]
Duration                                 : 2 h 12 min [url=/tag/1/][/url]
Bit rate mode                            : Constant [url=/tag/1/][/url]
Bit rate                                 : 448 kb/s [url=/tag/1/][/url]
Channel(s)                               : 6 channels [url=/tag/1/][/url]
Channel layout                           : L R C LFE Ls Rs [url=/tag/1/][/url]
Sampling rate                            : 48.0 kHz [url=/tag/1/][/url]
Frame rate                               : 31.250 FPS (1536 SPF) [url=/tag/1/][/url]
Compression mode                         : Lossy [url=/tag/1/][/url]
Stream size                              : 423 MiB (16%) [url=/tag/1/][/url]
Title                                    : Original [url=/tag/1/][/url]
Language                                 : English [url=/tag/1/][/url]
Service kind                             : Complete Main [url=/tag/1/][/url]
Default                                  : No [url=/tag/1/][/url]
Forced                                   : No [url=/tag/1/][/url]
[url=/tag/1/][/url]
Text #1 [url=/tag/1/][/url]
ID                                       : 4 [url=/tag/1/][/url]
Format                                   : UTF-8 [url=/tag/1/][/url]
Codec ID                                 : S_TEXT/UTF8 [url=/tag/1/][/url]
Codec ID/Info                            : UTF-8 Plain Text [url=/tag/1/][/url]
Duration                                 : 2 h 4 min [url=/tag/1/][/url]
Bit rate                                 : 1 b/s [url=/tag/1/][/url]
Count of elements                        : 35 [url=/tag/1/][/url]
Stream size                              : 1.08 KiB (0%) [url=/tag/1/][/url]
Title                                    : Forced [url=/tag/1/][/url]
Language                                 : Russian [url=/tag/1/][/url]
Default                                  : Yes [url=/tag/1/][/url]
Forced                                   : Yes [url=/tag/1/][/url]
[url=/tag/1/][/url]
Text #2 [url=/tag/1/][/url]
ID                                       : 5 [url=/tag/1/][/url]
Format                                   : UTF-8 [url=/tag/1/][/url]
Codec ID                                 : S_TEXT/UTF8 [url=/tag/1/][/url]
Codec ID/Info                            : UTF-8 Plain Text [url=/tag/1/][/url]
Duration                                 : 2 h 9 min [url=/tag/1/][/url]
Bit rate                                 : 69 b/s [url=/tag/1/][/url]
Count of elements                        : 1326 [url=/tag/1/][/url]
Stream size                              : 66.4 KiB (0%) [url=/tag/1/][/url]
Title                                    : Full [url=/tag/1/][/url]
Language                                 : Russian [url=/tag/1/][/url]
Default                                  : No [url=/tag/1/][/url]
Forced                                   : No [url=/tag/1/][/url]
[url=/tag/1/][/url]
Text #3 [url=/tag/1/][/url]
ID                                       : 6 [url=/tag/1/][/url]
Format                                   : UTF-8 [url=/tag/1/][/url]
Codec ID                                 : S_TEXT/UTF8 [url=/tag/1/][/url]
Codec ID/Info                            : UTF-8 Plain Text [url=/tag/1/][/url]
Duration                                 : 2 h 11 min [url=/tag/1/][/url]
Bit rate                                 : 66 b/s [url=/tag/1/][/url]
Count of elements                        : 1374 [url=/tag/1/][/url]
Stream size                              : 63.7 KiB (0%) [url=/tag/1/][/url]
Title                                    : Full v.2 [url=/tag/1/][/url]
Language                                 : Russian [url=/tag/1/][/url]
Default                                  : No [url=/tag/1/][/url]
Forced                                   : No [url=/tag/1/][/url]
[url=/tag/1/][/url]
Text #4 [url=/tag/1/][/url]
ID                                       : 7 [url=/tag/1/][/url]
Format                                   : UTF-8 [url=/tag/1/][/url]
Codec ID                                 : S_TEXT/UTF8 [url=/tag/1/][/url]
Codec ID/Info                            : UTF-8 Plain Text [url=/tag/1/][/url]
Duration                                 : 2 h 11 min [url=/tag/1/][/url]
Bit rate                                 : 42 b/s [url=/tag/1/][/url]
Count of elements                        : 1335 [url=/tag/1/][/url]
Stream size                              : 40.6 KiB (0%) [url=/tag/1/][/url]
Title                                    : English [url=/tag/1/][/url]
Language                                 : English [url=/tag/1/][/url]
Default                                  : No [url=/tag/1/][/url]
Forced                                   : No [url=/tag/1/][/url]
[url=/tag/1/][/url]
Text #5 [url=/tag/1/][/url]
ID                                       : 8 [url=/tag/1/][/url]
Format                                   : UTF-8 [url=/tag/1/][/url]
Codec ID                                 : S_TEXT/UTF8 [url=/tag/1/][/url]
Codec ID/Info                            : UTF-8 Plain Text [url=/tag/1/][/url]
Duration                                 : 2 h 11 min [url=/tag/1/][/url]
Bit rate                                 : 61 b/s [url=/tag/1/][/url]
Count of elements                        : 2051 [url=/tag/1/][/url]
Stream size                              : 59.5 KiB (0%) [url=/tag/1/][/url]
Title                                    : English CC [url=/tag/1/][/url]
Language                                 : English [url=/tag/1/][/url]
Default                                  : No [url=/tag/1/][/url]
Forced                                   : No [url=/tag/1/][/url]
[url=/tag/1/][/url]



Скриншоты:

Всего файлов в раздаче: 1 

Похожие раздачи по запросу - отряд
2023-07-09 magnet Мегавременной отряд / Mega Time Squad (2018) BDRip 720p от ExKinoRay | D 2.68 GB ↑ 0 ↓ 0
2021-10-17 magnet Отряд самоубийц: Миссия навылет / The Suicide Squad (2021) BDRip от Twister & ExKinoRay | D 1.46 GB ↑ 0 ↓ 0
2021-09-02 magnet Отряд самоубийц: Миссия навылет / The Suicide Squad (2021) WEB-DL 720p | D, P, A, L2 | iTunes 6.38 GB ↑ 0 ↓ 0

Кто качает (только для создателя раздачи и модераторов): Локальные пиры отсутствуют

Комментарии


Зарегистрируйтесь чтобы добавить комментарий
Торрент клиент
byTorrent - программа для загрузки торрент-файлов.

Скачать byTorrent.exe (1,5 МБ)

Скачать byTorrent.zip (0,6 МБ)

Поддержи torrent.by
российских рублей
(300 российских рублей это 4$)

Обратная связь rss

End game ©