↑↓torrent.by
Поиск
Логин:  Регистрация
Пароль:

Форсаж 10 / Fast X (2023) BDRip 1080p от селезень | D | Лицензия

download Скачать торрент-файл   magnet Магнитная ссылка Размер: 13.51 GB Добавлен: 2023-09-15 04:19
Пиры будут получены из сети DHT
Последний сидер был замечен сегодня в 04:38




Информация о фильме
Название: Форсаж 10
Оригинальное название: Fast X
Год выхода: 2023
Жанр: Боевик, криминал, детектив
Режиссер: Луи́ Летерье́
В ролях: Вин Дизель, Джордана Брюстер, Тайриз Гибсон, Мишель Родригес, Лудакрис, Джейсон Момоа, Джон Сина, Джейсон Стэйтем, Рита Морено, Хелен Миррен, Бри Ларсон, Шарлиз Терон, Алан Ричсон, Лео Абело Перри, Майкл Рукер, Карди Би, Натали Эммануэль, Луис Да Силва мл., Скотт Иствуд, Даниэла Мелшиор, Санг Кенг, Мидоу Уокер

IMBD

О фильме: Доминик Торетто и его семья преодолели самые невероятные испытания, обогнав и победив всех врагов на своем пути. Теперь же герои противостоят самому смертоносному противнику из всех, с которыми они когда-либо сталкивались. Воскресшая из тени прошлого угроза, подпитываемая кровной местью, может уничтожить всех, кто дорог Дому. «Форсаж 10» — десятая и заключительная часть франшизы о быстрых и свирепых тачках.

Страна: США, Китай
Студия: One Race Films, Original Film, Perfect Storm Entertainment, Roth/Kirschenbaum Films, Universal Pictures
Продолжительность: 02:20:50
Перевод: Дублированный (профессиональный) | Лицензия (Bravo Records Georgia / Movie Dubbing)

Качество: BDRip 1080p
Видео: MPEG-4 AVC, 1920x804, 12.9 Mbit/s, 23.976 fps
Аудио #01: 48 kHz, AC3, 5.1, 384 Kbps | Дублированный (профессиональный) | Лицензия (Bravo Records Georgia / Movie Dubbing) | RUS |
Аудио #02: 48 kHz, AC3, 5.1, 448 Kbps | Оригинал | ENG |
Субтитры: Русские (Forced, 2 x full), украинские (Full), английские



[+] Info
General
Unique ID : 329312871841057526768456722803642416856 (0xF7BF5A22E74AA9DDB18A833CB1AD3ED8)
Complete name : G:VideoGFast.X.2023.D.BDRip.1080p.seleZen.mkv
Format : Matroska
Format version : Version 4
File size : 13.5 GiB
Duration : 2 h 20 min
Overall bit rate : 13.7 Mb/s
Frame rate : 23.976 FPS
Movie name : Fast X 2023 from seleZen
Encoded date : 2023-09-14 10:36:23 UTC
Writing application : mkvmerge v63.0.0 ('Everything') 64-bit
Writing library : libebml v1.4.2 + libmatroska v1.6.4

Video
ID : 1
Format : AVC
Format/Info : Advanced Video Codec
Format profile : High@L4.1
Format settings : CABAC / 5 Ref Frames
Format settings, CABAC : Yes
Format settings, Reference : 5 frames
Codec ID : V_MPEG4/ISO/AVC
Duration : 2 h 20 min
Bit rate : 12.9 Mb/s
Width : 1 920 pixels
Height : 804 pixels
Display aspect ratio : 2.40:1
Frame rate mode : Constant
Frame rate : 23.976 (24000/1001) FPS
Color space : YUV
Chroma subsampling : 4:2:0
Bit depth : 8 bits
Scan type : Progressive
Bits/(Pixel*Frame) : 0.349
Stream size : 12.7 GiB (94%)
Title : MTeam
Writing library : x264 core 157 r2938 2b00a84 TnP@MTeam Mod
Encoding settings : cabac=1 / ref=5 / deblock=1:-3:-3 / analyse=0x3:0x133 / me=umh / subme=10 / psy=1 / psy_rd=1.05:0.00 / mixed_ref=1 / me_range=32 / chroma_me=1 / trellis=2 / 8x8dct=1 / cqm=0 / deadzone=21,11 / fast_pskip=0 / chroma_qp_offset=-2 / threads=12 / lookahead_threads=2 / sliced_threads=0 / nr=0 / decimate=0 / interlaced=0 / bluray_compat=0 / constrained_intra=0 / bframes=8 / b_pyramid=2 / b_adapt=2 / b_bias=0 / direct=3 / weightb=1 / open_gop=0 / weightp=2 / keyint=250 / keyint_min=24 / scenecut=40 / intra_refresh=0 / rc_lookahead=250 / rc=crf / mbtree=0 / crf=16.8 / qcomp=0.60 / qpmin=0 / qpmax=69 / qpstep=4 / vbv_maxrate=62500 / vbv_bufsize=78125 / crf_max=0.0 / nal_hrd=none / filler=0 / ip_ratio=1.30 / pb_ratio=1.20 / aq=3:0.80
Language : English
Default : Yes
Forced : No
Color range : Limited
Color primaries : BT.709
Matrix coefficients : BT.709

Audio #1
ID : 2
Format : AC-3
Format/Info : Audio Coding 3
Commercial name : Dolby Digital
Codec ID : A_AC3
Duration : 2 h 20 min
Bit rate mode : Constant
Bit rate : 384 kb/s
Channel(s) : 6 channels
Channel layout : L R C LFE Ls Rs
Sampling rate : 48.0 kHz
Frame rate : 31.250 FPS (1536 SPF)
Compression mode : Lossy
Stream size : 387 MiB (3%)
Title : Dub [Bravo Records Georgia / Movie Dubbing]
Language : Russian
Service kind : Complete Main
Default : Yes
Forced : No

Audio #2
ID : 3
Format : AC-3
Format/Info : Audio Coding 3
Commercial name : Dolby Digital
Codec ID : A_AC3
Duration : 2 h 20 min
Bit rate mode : Constant
Bit rate : 448 kb/s
Channel(s) : 6 channels
Channel layout : L R C LFE Ls Rs
Sampling rate : 48.0 kHz
Frame rate : 31.250 FPS (1536 SPF)
Compression mode : Lossy
Stream size : 451 MiB (3%)
Title : Original
Language : English
Service kind : Complete Main
Default : No
Forced : No

Text #1
ID : 4
Format : UTF-8
Codec ID : S_TEXT/UTF8
Codec ID/Info : UTF-8 Plain Text
Duration : 2 h 5 min
Bit rate : 1 b/s
Frame rate : 0.006 FPS
Count of elements : 44
Stream size : 1.36 KiB (0%)
Title : Forced
Language : Russian
Default : Yes
Forced : Yes

Text #2
ID : 5
Format : UTF-8
Codec ID : S_TEXT/UTF8
Codec ID/Info : UTF-8 Plain Text
Duration : 2 h 20 min
Bit rate : 65 b/s
Frame rate : 0.184 FPS
Count of elements : 1546
Stream size : 66.9 KiB (0%)
Title : Full [Off.]
Language : Russian
Default : No
Forced : No

Text #3
ID : 6
Format : UTF-8
Codec ID : S_TEXT/UTF8
Codec ID/Info : UTF-8 Plain Text
Duration : 2 h 10 min
Bit rate : 77 b/s
Frame rate : 0.204 FPS
Count of elements : 1599
Stream size : 74.2 KiB (0%)
Title : Full v.2
Language : Russian
Default : No
Forced : No

Text #4
ID : 7
Format : UTF-8
Codec ID : S_TEXT/UTF8
Codec ID/Info : UTF-8 Plain Text
Duration : 2 h 20 min
Bit rate : 72 b/s
Frame rate : 0.186 FPS
Count of elements : 1563
Stream size : 74.0 KiB (0%)
Title : Full
Language : Ukrainian
Default : No
Forced : No

Text #5
ID : 8
Format : UTF-8
Codec ID : S_TEXT/UTF8
Codec ID/Info : UTF-8 Plain Text
Duration : 2 h 14 min
Bit rate : 58 b/s
Frame rate : 0.247 FPS
Count of elements : 1999
Stream size : 58.1 KiB (0%)
Title : Full
Language : English
Default : No
Forced : No

Text #6
ID : 9
Format : UTF-8
Codec ID : S_TEXT/UTF8
Codec ID/Info : UTF-8 Plain Text
Duration : 2 h 20 min
Bit rate : 68 b/s
Frame rate : 0.303 FPS
Count of elements : 2562
Stream size : 70.2 KiB (0%)
Title : SDH
Language : English
Default : No
Forced : No

Menu
00:00:00.000 : en:Chapter 01
00:06:30.056 : en:Chapter 02
00:15:47.238 : en:Chapter 03
00:23:09.555 : en:Chapter 04
00:32:54.890 : en:Chapter 05
00:40:21.002 : en:Chapter 06
00:46:43.676 : en:Chapter 07
00:50:51.048 : en:Chapter 08
00:57:37.412 : en:Chapter 09
01:07:34.550 : en:Chapter 10
01:14:01.312 : en:Chapter 11
01:19:54.707 : en:Chapter 12
01:28:26.051 : en:Chapter 13
01:32:36.050 : en:Chapter 14
01:38:26.484 : en:Chapter 15
01:45:49.969 : en:Chapter 16
01:49:08.459 : en:Chapter 17
01:53:51.283 : en:Chapter 18
02:00:17.710 : en:Chapter 19
02:07:25.304 : en:Chapter 20



Релиз: Присоединяйся к: Кликай на баннеры.
Всего файлов в раздаче: 1 
Fast.X.2023.D.BDRip.1080p.seleZen.mkv13.51 GB

Похожие раздачи по запросу - Форсаж
2024-03-29 magnet Форсаж в Паттайе / Kla Fun / The X-Treme Riders (2023) WEB-DLRip от toxics & селезень | D | Локализованная версия 1.46 GB ↑ 0 ↓ 0

Комментарии


Зарегистрируйтесь чтобы добавить комментарий
Торрент клиент
byTorrent - программа для загрузки торрент-файлов.

Скачать byTorrent.exe (1,5 МБ)

Скачать byTorrent.zip (0,6 МБ)

Поддержи torrent.by
российских рублей
(300 российских рублей это 4$)

Обратная связь rss

End game ©