↑↓torrent.by
Поиск
Логин:  Регистрация
Пароль:

Жанна Дюбарри / Jeanne du Barry (2023) WEB-DL 1080p от селезень | D | Локализованная версия

download Скачать торрент-файл   magnet Магнитная ссылка Размер: 5.14 GB Добавлен: 2023-09-21 14:31
Пиры будут получены из сети DHT
Последний сидер был замечен 2024-06-20 23:07




Информация о фильме
Название: Жанна Дюбарри
Оригинальное название: Jeanne du Barry
Год выхода: 2023
Жанр: Драма, биография, история
Режиссер: Майвенн
В ролях: Джонни Депп, Майвенн, Пьер Ришар, Ноэми Львовски, Мельвиль Пупо, Паскаль Греггори, Бенжамен Лаверн, Марианн Басле, Индия Хэйр, Давид Декрен, Луна Карпио

IMBD

О фильме: Рожденная в простой семье Жанна Бекю использует все свое обаяние, чтобы пробиться в высшее общество. Однажды граф Жан-Батист Дюбарри, обогатившийся не в последнюю очередь благодаря усилиям Жанны, организовывает для своей любовницы встречу с королем, которая превосходит все ее ожидания. Между Людовиком XV и Жанной вспыхивает любовь с первого взгляда. Куртизанка помогает королю заново ощутить вкус жизни, отныне он хочет быть лишь с ней и делает Жанну своей официальной фавориткой, что приводит к большому скандалу. «Жанна Дюбарри» — историческая драма об официальной фаворитке Людовика XV с Джонни Деппом и Майвенн в главных ролях.

Страна: Франция
Студия: Casa Kafka Pictures, France 2 Cinéma, France 3 Cinéma
Продолжительность: 01:57:15
Перевод: Дублированный | Мосфильм-Мастер

Качество: WEB-DL 1080p
Видео: MPEG-4 AVC, 1920x1040, 4868 Kbit/s, 24.000 fps
Аудио #01: 48 kHz, AC3, 5.1, 384 Kbps | Дублированный | Мосфильм-Мастер | RUS |
Аудио #02: 48 kHz, E-AC3, 5.1, 384 Kbps | Дублированный | Мосфильм-Мастер | RUS |
Аудио #03: 48 kHz, E-AC3, 5.1, 640 Kbps | Оригинал | FRE |
Субтитры: Русские (Full), английские



[+] MI
General
Unique ID : 278130347019285666641104689886307864661 (0xD13DF4D51AE6DF66884C978B1F98D055)
Complete name : G:VideoGJeanne.du.Barry.2023.Local.WEB-DL.1080p.seleZen.mkv
Format : Matroska
Format version : Version 4
File size : 5.14 GiB
Duration : 1 h 57 min
Overall bit rate : 6 278 kb/s
Frame rate : 24.000 FPS
Movie name : Jeanne du Barry 2023 from seleZen
Encoded date : 2023-09-20 21:59:47 UTC
Writing application : mkvmerge v63.0.0 ('Everything') 64-bit
Writing library : libebml v1.4.2 + libmatroska v1.6.4

Video
ID : 1
Format : AVC
Format/Info : Advanced Video Codec
Format profile : High@L4
Format settings : CABAC / 3 Ref Frames
Format settings, CABAC : Yes
Format settings, Reference frames : 3 frames
Codec ID : V_MPEG4/ISO/AVC
Duration : 1 h 57 min
Bit rate : 4 868 kb/s
Width : 1 920 pixels
Height : 1 040 pixels
Display aspect ratio : 1.85:1
Frame rate mode : Constant
Frame rate : 24.000 FPS
Color space : YUV
Chroma subsampling : 4:2:0
Bit depth : 8 bits
Scan type : Progressive
Bits/(Pixel*Frame) : 0.102
Stream size : 3.99 GiB (78%)
Language : English
Default : Yes
Forced : No

Audio #1
ID : 2
Format : AC-3
Format/Info : Audio Coding 3
Commercial name : Dolby Digital
Codec ID : A_AC3
Duration : 1 h 57 min
Bit rate mode : Constant
Bit rate : 384 kb/s
Channel(s) : 6 channels
Channel layout : L R C LFE Ls Rs
Sampling rate : 48.0 kHz
Frame rate : 31.250 FPS (1536 SPF)
Compression mode : Lossy
Stream size : 322 MiB (6%)
Title : Dub
Language : Russian
Service kind : Complete Main
Default : Yes
Forced : No

Audio #2
ID : 3
Format : E-AC-3
Format/Info : Enhanced AC-3
Commercial name : Dolby Digital Plus
Codec ID : A_EAC3
Duration : 1 h 57 min
Bit rate mode : Constant
Bit rate : 384 kb/s
Channel(s) : 6 channels
Channel layout : L R C LFE Ls Rs
Sampling rate : 48.0 kHz
Frame rate : 31.250 FPS (1536 SPF)
Compression mode : Lossy
Stream size : 322 MiB (6%)
Title : Dub
Language : Russian
Service kind : Complete Main
Default : No
Forced : No

Audio #3
ID : 4
Format : E-AC-3
Format/Info : Enhanced AC-3
Commercial name : Dolby Digital Plus
Codec ID : A_EAC3
Duration : 1 h 57 min
Bit rate mode : Constant
Bit rate : 640 kb/s
Channel(s) : 6 channels
Channel layout : L R C LFE Ls Rs
Sampling rate : 48.0 kHz
Frame rate : 31.250 FPS (1536 SPF)
Compression mode : Lossy
Stream size : 537 MiB (10%)
Title : Original
Language : French
Service kind : Complete Main
Default : No
Forced : No

Text #1
ID : 5
Format : UTF-8
Codec ID : S_TEXT/UTF8
Codec ID/Info : UTF-8 Plain Text
Duration : 1 h 47 min
Bit rate : 64 b/s
Frame rate : 0.135 FPS
Count of elements : 870
Stream size : 50.5 KiB (0%)
Title : Full
Language : Russian
Default : No
Forced : No

Text #2
ID : 6
Format : UTF-8
Codec ID : S_TEXT/UTF8
Codec ID/Info : UTF-8 Plain Text
Duration : 1 h 47 min
Bit rate : 32 b/s
Frame rate : 0.127 FPS
Count of elements : 825
Stream size : 26.0 KiB (0%)
Title : Full
Language : English
Default : No
Forced : No



Релиз: Присоединяйся к: Кликай на баннеры.
Всего файлов в раздаче: 1 
Jeanne.du.Barry.2023.Local.WEB-DL.1080p.seleZen.mkv5.14 GB

Похожие раздачи по запросу - Жанна
2024-06-17 magnet Жанна Левин - Блюз чёрных дыр и другие мелодии космоса (2020) MP3 318.82 MB ↑ 0 ↓ 0
2023-10-07 magnet Жанна Дюбарри / Jeanne du Barry (2023) BDRip 1080p от ExKinoRay | D 13.72 GB ↑ 0 ↓ 0
2023-09-21 magnet Жанна Дюбарри / Jeanne du Barry (2023) BDRip 1080p от селезень | D 14.59 GB ↑ 1 ↓ 0
2022-12-18 magnet Жанна (2022) WEB-DLRip от ELEKTRI4KA | IVI 1.46 GB ↑ 0 ↓ 0

Комментарии


Зарегистрируйтесь чтобы добавить комментарий
Торрент клиент
byTorrent - программа для загрузки торрент-файлов.

Скачать byTorrent.exe (1,5 МБ)

Скачать byTorrent.zip (0,6 МБ)

Поддержи torrent.by
российских рублей
(300 российских рублей это 4$)

Обратная связь rss

End game ©