↑↓torrent.by
Поиск
Логин:  Регистрация
Пароль:

Angra - Cycles Of Pain [24Bit, Hi-Res] (2023) FLAC

download Скачать торрент-файл   magnet Магнитная ссылка Размер: 716.29 MB Добавлен: 2023-11-03 14:57
Пиры будут получены из сети DHT
Последний сидер был замечен 2024-06-20 00:20




Жанр: Power-Metal
Издание: Atomic Fire Records
Источник: qobuz
Продолжительность: 00:58:27

Кодек: FLAC 24/44.1
Битрейт: Lossless|WEB-DL
Тип рипа: tracks

Треклист:
01. Cyclus Doloris (0:48)
02. Ride Into The Storm (6:12)
03. Dead Man On Display (6:07)
04. Tide Of Changes (Pt. I) (1:15)
05. Tide Of Changes (Pt. II) (5:38)
06. Vida Seca (5:11)
07. Gods Of The World (4:44)
08. Cycles Of Pain (5:14)
09. Faithless Sanctuary (6:39)
10. Here In The Now (5:54)
11. Generation Warriors (5:09)
12. Tears Of Blood (5:36)

[+] Дополнительная информация:

Brazil





[+] Отчёт DR:

--------------------------------------------------------------------------------
Analyzed: Angra / Cycles Of Pain
--------------------------------------------------------------------------------

DR Peak RMS Duration Track
--------------------------------------------------------------------------------
DR10 -0.81 dB -15.64 dB 0:48 01-Cyclus Doloris
DR5 -0.09 dB -6.35 dB 6:12 02-Ride Into The Storm
DR5 -0.08 dB -6.43 dB 6:07 03-Dead Man On Display
DR10 -0.61 dB -13.50 dB 1:15 04-Tide Of Changes (Pt. I)
DR6 -0.01 dB -7.03 dB 5:38 05-Tide Of Changes (Pt. II)
DR6 -0.06 dB -7.05 dB 5:11 06-Vida Seca
DR5 -0.09 dB -6.30 dB 4:44 07-Gods Of The World
DR6 -0.07 dB -7.46 dB 5:14 08-Cycles Of Pain
DR6 -0.04 dB -6.67 dB 6:39 09-Faithless Sanctuary
DR6 -0.02 dB -7.38 dB 5:54 10-Here In The Now
DR5 -0.06 dB -5.83 dB 5:09 11-Generation Warriors
DR5 -0.07 dB -6.62 dB 5:36 12-Tears Of Blood
--------------------------------------------------------------------------------

Number of tracks: 12
Official DR value: DR6

Samplerate: 44100 Hz
Channels: 2
Bits per sample: 24
Bitrate: 1670 kbps
Codec: FLAC
================================================================================

Всего файлов в раздаче: 13 
01 Cyclus Doloris.flac8.96 MB
02 Ride Into The Storm.flac77.05 MB
03 Dead Man On Display.flac74.68 MB
04 Tide Of Changes (Pt. I).flac14.10 MB
05 Tide Of Changes (Pt. II).flac68.95 MB
06 Vida Seca.flac63.74 MB
07 Gods Of The World.flac58.93 MB
08 Cycles Of Pain.flac64.03 MB
09 Faithless Sanctuary.flac81.96 MB
10 Here In The Now.flac71.76 MB
Показать все файлы

Кто качает (только для создателя раздачи и модераторов): Локальные пиры отсутствуют

Комментарии


Зарегистрируйтесь чтобы добавить комментарий
Торрент клиент
byTorrent - программа для загрузки торрент-файлов.

Скачать byTorrent.exe (1,5 МБ)

Скачать byTorrent.zip (0,6 МБ)

Поддержи torrent.by
российских рублей
(300 российских рублей это 4$)

Обратная связь rss

End game ©