↑↓torrent.by
Поиск
Логин:  Регистрация
Пароль:

Индиана Джонс и колесо судьбы / Indiana Jones and the Dial of Destiny (2023) HDRip-AVC от New-Team | D | RHS

download Скачать торрент-файл   magnet Магнитная ссылка Размер: 2.99 GB Добавлен: 2023-12-01 17:00
Пиры будут получены из сети DHT
Последний сидер был замечен 2024-06-20 18:33



Индиана Джонс и колесо судьбы / Indiana Jones and the Dial of Destiny

Год выпуска: 2023
Выпущено: США / Lucasfilm Ltd., Paramount Pictures, Walt Disney Pictures
Жанр: Боевик, приключения
Режиссер: Джеймс Мэнголд / James Mangold
В ролях: Харрисон Форд, Мадс Миккельсен, Фиби Уоллер-Бридж, Бойд Холбрук, Тоби Джонс, Томас Кречман, Шонетт Рене Уилсон, Антонио Бандерас, Оливье Рихтерс

О фильме: 1969 год. Американский археолог и искатель приключений Индиана Джонс подозревает, что в отчаянном стремлении выиграть «космическую гонку» у Советского Союза США обратились к бывшим врагам времен Второй мировой войны. Спустя полвека Джонс и его крестница Хелена должны помешать коварным планам бывшего нациста и члена НАСА Фоллера, участвовавшего в программе по высадке на Луну. «Индиана Джонс и колесо судьбы» — пятый фильм о приключениях неувядающего авантюриста и пытливого археолога-исследователя.

IMBD

Продолжительность: 02:34:33
Перевод: Дублированный, неофициальный | Red Head Sound
Субтитры: Русские (forced, 2 x full), английские

*В дубляж сделаны вставки Сербина на немецкую речь. Работа со звуком potroks.

Раздача от:
Автор релиза: JNS82.
Формат: MKV
Качество: HDRip-AVC
Видео: MPEG-4 AVC, 1944 Кбит/с, 1024x428
Аудио #1: AC3, 6 ch, 448 Кбит/с | RUS |
Аудио #2: AC3, 6 ch, 384 Кбит/с | ENG |


[+] MediaInfo
Общее
Уникальный идентификатор : 327826360282227867369907227223792886773 (0xF6A10F753DA2CA332579735B06C123F5)
Полное имя : E:TorrentsIndiana.Jones.and.the.Dial.of.Destiny.2023.HDRip-AVC_от New-Team_by_JNS82.mkv
Формат : Matroska
Версия формата : Version 4
Размер файла : 2,99 Гбайт
Продолжительность : 2 ч. 34 м.
Общий поток : 2 775 Кбит/сек
Название фильма : Indiana.Jones.and.the.Dial.of.Destiny.2023.HDRip-AVC_от New-Team_by_JNS82
Дата кодирования : UTC 2023-12-01 05:47:02
Программа кодирования : mkvmerge v80.0 ('Roundabout') 64-bit
Библиотека кодирования : libebml v1.4.4 + libmatroska v1.7.1

Видео
Идентификатор : 1
Формат : AVC
Формат/Информация : Advanced Video Codec
Профиль формата : High@L4.1
Настройки формата : CABAC / 12 Ref Frames
Параметр CABAC формата : Да
Параметр RefFrames формата : 12 кадров
Идентификатор кодека : V_MPEG4/ISO/AVC
Продолжительность : 2 ч. 34 м.
Битрейт : 1 944 Кбит/сек
Ширина : 1 024 пикселя
Высота : 428 пикселей
Соотношение сторон : 2,40:1
Режим частоты кадров : Постоянный
Частота кадров : 23,976 (24000/1001) кадра/сек
Цветовое пространство : YUV
Субдискретизация насыщенности : 4:2:0
Битовая глубина : 8 бит
Тип развёртки : Прогрессивная
Бит/(Пиксели*Кадры) : 0.185
Размер потока : 2,09 Гбайт (70%)
Библиотека кодирования : x264 core 164 r3107 a8b68eb
Настройки программы : cabac=1 / ref=12 / deblock=1:-1:-2 / analyse=0x3:0x133 / me=umh / subme=10 / psy=1 / psy_rd=1.00:0.00 / mixed_ref=1 / me_range=32 / chroma_me=1 / trellis=2 / 8x8dct=1 / cqm=0 / deadzone=21,11 / fast_pskip=0 / chroma_qp_offset=-2 / threads=13 / lookahead_threads=3 / sliced_threads=0 / nr=0 / decimate=0 / interlaced=0 / bluray_compat=0 / constrained_intra=0 / bframes=12 / b_pyramid=2 / b_adapt=2 / b_bias=0 / direct=1 / weightb=1 / open_gop=0 / weightp=1 / keyint=240 / keyint_min=23 / scenecut=40 / intra_refresh=0 / rc_lookahead=60 / rc=2pass / mbtree=0 / bitrate=1944 / ratetol=1.0 / qcomp=0.60 / qpmin=0 / qpmax=68 / qpstep=4 / cplxblur=20.0 / qblur=0.5 / vbv_maxrate=5000 / vbv_bufsize=62500 / nal_hrd=none / filler=0 / ip_ratio=1.40 / pb_ratio=1.30 / aq=1:1.00
Default : Да
Forced : Нет

Аудио #1
Идентификатор : 2
Формат : AC-3
Формат/Информация : Audio Coding 3
Коммерческое название : Dolby Digital
Идентификатор кодека : A_AC3
Продолжительность : 2 ч. 34 м.
Вид битрейта : Постоянный
Битрейт : 448 Кбит/сек
Каналы : 6 каналов
Channel layout : L R C LFE Ls Rs
Частота : 48,0 КГц
Частота кадров : 31,250 кадров/сек (1536 SPF)
Метод сжатия : С потерями
Размер потока : 495 Мбайт (16%)
Заголовок : DUB - RHS + Serbin
Язык : Russian
Service kind : Complete Main
Default : Да
Forced : Нет

Аудио #2
Идентификатор : 3
Формат : AC-3
Формат/Информация : Audio Coding 3
Коммерческое название : Dolby Digital
Идентификатор кодека : A_AC3
Продолжительность : 2 ч. 34 м.
Вид битрейта : Постоянный
Битрейт : 384 Кбит/сек
Каналы : 6 каналов
Channel layout : L R C LFE Ls Rs
Частота : 48,0 КГц
Частота кадров : 31,250 кадров/сек (1536 SPF)
Метод сжатия : С потерями
Размер потока : 424 Мбайт (14%)
Заголовок : Original
Язык : English
Service kind : Complete Main
Default : Нет
Forced : Нет

Текст #1
Идентификатор : 4
Формат : UTF-8
Идентификатор кодека : S_TEXT/UTF8
Идентификатор кодека/Информация : UTF-8 Plain Text
Продолжительность : 1 ч. 36 м.
Битрейт : 0 бит/сек
Count of elements : 12
Размер потока : 448 байт (0%)
Заголовок : [forced]
Язык : Russian
Default : Да
Forced : Нет

Текст #2
Идентификатор : 5
Формат : UTF-8
Идентификатор кодека : S_TEXT/UTF8
Идентификатор кодека/Информация : UTF-8 Plain Text
Продолжительность : 2 ч. 33 м.
Битрейт : 58 бит/сек
Count of elements : 1750
Размер потока : 65,4 Кбайт (0%)
Заголовок : [full]
Язык : Russian
Default : Нет
Forced : Нет

Текст #3
Идентификатор : 6
Формат : UTF-8
Идентификатор кодека : S_TEXT/UTF8
Идентификатор кодека/Информация : UTF-8 Plain Text
Продолжительность : 2 ч. 22 м.
Битрейт : 61 бит/сек
Count of elements : 1713
Размер потока : 64,6 Кбайт (0%)
Заголовок : [full [FOCS]]
Язык : Russian
Default : Нет
Forced : Нет

Текст #4
Идентификатор : 7
Формат : UTF-8
Идентификатор кодека : S_TEXT/UTF8
Идентификатор кодека/Информация : UTF-8 Plain Text
Продолжительность : 2 ч. 22 м.
Битрейт : 41 бит/сек
Count of elements : 1739
Размер потока : 42,9 Кбайт (0%)
Заголовок : [full]
Язык : English
Default : Нет
Forced : Нет

Всего файлов в раздаче: 1 
Indiana.Jones.and.the.Dial.of.Destiny.2023.HDRip-AVC_от New-Team_by_JNS82.mkv2.99 GB

Похожие раздачи по запросу - Индиана
2024-05-01 magnet Индиана Джонс и колесо судьбы / Індіана Джонс і реліквія долі / Indiana Jones and the Dial of Destiny (2023) UHD BDRemux 2160p | 4K | HDR | Dolby Vision Profile 8 | D | UKR 68.73 GB ↑ 1 ↓ 0
2023-11-21 magnet Индиана Джонс и колесо судьбы / Indiana Jones and the Dial of Destiny (2023) BDRip от MegaPeer | D 1.46 GB ↑ 0 ↓ 0
2023-11-01 magnet Индиана Джонс и колесо судьбы / Indiana Jones and the Dial of Destiny (2023) WEB-DL 1080p от RGB | D 9.47 GB ↑ 0 ↓ 0
2023-08-29 magnet Индиана Джонс и колесо судьбы / Indiana Jones and the Dial of Destiny (2023) UHD WEB-DL-HEVC 2160p от селезень | 4K | HDR | HDR10+ | Dolby Vision Profile 8 | D 27.50 GB ↑ 1 ↓ 0
2023-08-29 magnet Индиана Джонс и колесо судьбы / Indiana Jones and the Dial of Destiny (2023) WEB-DLRip-AVC от DoMiNo & селезень | D | MovieDalen 2.76 GB ↑ 1 ↓ 0
2023-08-29 magnet Индиана Джонс и колесо судьбы / Indiana Jones and the Dial of Destiny (2023) WEB-DL 720p от селезень | D 5.05 GB ↑ 0 ↓ 0
2023-08-29 magnet Индиана Джонс и колесо судьбы / Indiana Jones and the Dial of Destiny (2023) WEB-DLRip от MegaPeer | D 1.47 GB ↑ 0 ↓ 0

Комментарии


Зарегистрируйтесь чтобы добавить комментарий
Торрент клиент
byTorrent - программа для загрузки торрент-файлов.

Скачать byTorrent.exe (1,5 МБ)

Скачать byTorrent.zip (0,6 МБ)

Поддержи torrent.by
российских рублей
(300 российских рублей это 4$)

Обратная связь rss

End game ©