↑↓torrent.by
Поиск
Логин:  Регистрация
Пароль:

Продавцы боли / Pain Hustlers (2023) WEB-DL-HEVC 2160p | 4K | SDR | P, P2

download Скачать торрент-файл   magnet Магнитная ссылка Размер: 16.45 GB Добавлен: 2023-12-31 17:00
Пиры будут получены из сети DHT
Последний сидер был замечен 2024-06-20 21:53
Информация о фильме Название: Продавцы боли Оригинальное название: Pain Hustlers Год выхода: 2023 Жанр: драма, криминал Режиссер: Дэвид Йейтс В ролях: Крис Эванс, Эмили Блант, Кэтрин О’Хара, Энди Гарсиа, Хлоя Коулмэн, Джей Дюпласс, Амит Шах, Брайан Д’Арси Джеймс, Алексис Бака, Обри Доллар О фильме: Лиза Дрейк бросила колледж и отправилась на поиски лучшей жизни для себя и своей маленькой дочери. Получив работу в обанкротившемся фармацевтическом стартапе, она, благодаря мужеству и напористости, вдохнула в компанию новую жизнь. Однако с большими деньгами приходят и риски. Страна: Великобритания, США Студия: Grey Matter Productions, Wychwood Media Продолжительность: 02:04:49 Перевод(ы): #1: Профессиональный (многоголосый, закадровый) | TVShows #2: Профессиональный (многоголосый, закадровый) | Jaskier #3: Профессиональный (двухголосый, закадровый) | ViruseProject Файл Кодек: H.265 Качество: WEB-DL 2160p Видео: HEVC, 3840x2160 (16:9), 24.000 fps, 17.1 Mb/s Аудио 1: AC3, 48.0 kHz, 6 ch, 384 kb/s | RUS (MVO, TVShows) Аудио 2: AC3, 48.0 kHz, 6 ch, 384 kb/s | RUS (MVO, Jaskier) Аудио 3: AC3, 48.0 kHz, 2 ch, 192 kb/s | RUS (DVO, ViruseProject) Аудио 4: E-AC3 JOC, 48.0 kHz, 6 ch, 768 kb/s | ENG Субтитры: Русские (Forced, full), aнглийские (forced, full, SDH)
[+] MIGeneral Unique ID : 248343319192500037139224507047411139815 (0xBAD52EF9573041420696E3B59EEF44E7) Complete name : G:Pain.Hustlers.(2023).WEB-DL.2160p.mkv Format : Matroska Format version : Version 4 File size : 16.4 GiB Duration : 2 h 4 min Overall bit rate : 18.9 Mb/s Encoded date : UTC 2023-12-31 10:40:11 Writing application : mkvmerge v81.0 ('Milliontown') 64-bit Writing library : libebml v1.4.4 + libmatroska v1.7.1 Video ID : 1 Format : HEVC Format/Info : High Efficiency Video Coding Format profile : Main 10@L5@Main Codec ID : V_MPEGH/ISO/HEVC Duration : 2 h 4 min Bit rate : 17.1 Mb/s Width : 3 840 pixels Height : 2 160 pixels Display aspect ratio : 16:9 Frame rate mode : Constant Frame rate : 24.000 FPS Color space : YUV Chroma subsampling : 4:2:0 Bit depth : 10 bits Bits/(Pixel*Frame) : 0.086 Stream size : 15.0 GiB (91%) Default : Yes Forced : No Color range : Limited Color primaries : BT.709 Transfer characteristics : BT.709 Matrix coefficients : BT.709 Audio #1 ID : 2 Format : AC-3 Format/Info : Audio Coding 3 Commercial name : Dolby Digital Codec ID : A_AC3 Duration : 2 h 4 min Bit rate mode : Constant Bit rate : 384 kb/s Channel(s) : 6 channels Channel layout : L R C LFE Ls Rs Sampling rate : 48.0 kHz Frame rate : 31.250 FPS (1536 SPF) Compression mode : Lossy Stream size : 343 MiB (2%) Title : MVO (TVShows) Language : Russian Service kind : Complete Main Default : Yes Forced : No Audio #2 ID : 3 Format : AC-3 Format/Info : Audio Coding 3 Commercial name : Dolby Digital Codec ID : A_AC3 Duration : 2 h 4 min Bit rate mode : Constant Bit rate : 384 kb/s Channel(s) : 6 channels Channel layout : L R C LFE Ls Rs Sampling rate : 48.0 kHz Frame rate : 31.250 FPS (1536 SPF) Compression mode : Lossy Stream size : 343 MiB (2%) Title : MVO (Jaskier) Language : Russian Service kind : Complete Main Default : No Forced : No Audio #3 ID : 4 Format : AC-3 Format/Info : Audio Coding 3 Commercial name : Dolby Digital Codec ID : A_AC3 Duration : 2 h 2 min Bit rate mode : Constant Bit rate : 192 kb/s Channel(s) : 2 channels Channel layout : L R Sampling rate : 48.0 kHz Frame rate : 31.250 FPS (1536 SPF) Compression mode : Lossy Stream size : 168 MiB (1%) Title : DVO (ViruseProject) Language : Russian Service kind : Complete Main Default : No Forced : No Audio #4 ID : 5 Format : E-AC-3 JOC Format/Info : Enhanced AC-3 with Joint Object Coding Commercial name : Dolby Digital Plus with Dolby Atmos Codec ID : A_EAC3 Duration : 2 h 2 min Bit rate mode : Constant Bit rate : 768 kb/s Channel(s) : 6 channels Channel layout : L R C LFE Ls Rs Sampling rate : 48.0 kHz Frame rate : 31.250 FPS (1536 SPF) Compression mode : Lossy Stream size : 674 MiB (4%) Title : Original Language : English Service kind : Complete Main Default : No Forced : No Complexity index : 16 Number of dynamic objects : 15 Bed channel count : 1 channel Bed channel configuration : LFE Text #1 ID : 6 Format : UTF-8 Codec ID : S_TEXT/UTF8 Codec ID/Info : UTF-8 Plain Text Duration : 1 h 53 min Bit rate : 2 b/s Count of elements : 51 Stream size : 1.67 KiB (0%) Title : Forced Language : Russian Default : Yes Forced : Yes Text #2 ID : 7 Format : UTF-8 Codec ID : S_TEXT/UTF8 Codec ID/Info : UTF-8 Plain Text Duration : 2 h 2 min Bit rate : 107 b/s Count of elements : 1906 Stream size : 96.5 KiB (0%) Title : Full Language : Russian Default : No Forced : No Text #3 ID : 8 Format : UTF-8 Codec ID : S_TEXT/UTF8 Codec ID/Info : UTF-8 Plain Text Duration : 9 s 42 ms Bit rate : 87 b/s Count of elements : 3 Stream size : 99.0 Bytes (0%) Title : Forced Language : English Default : No Forced : No Text #4 ID : 9 Format : UTF-8 Codec ID : S_TEXT/UTF8 Codec ID/Info : UTF-8 Plain Text Duration : 1 h 55 min Bit rate : 82 b/s Count of elements : 1999 Stream size : 70.2 KiB (0%) Title : Full Language : English Default : No Forced : No Text #5 ID : 10 Format : UTF-8 Codec ID : S_TEXT/UTF8 Codec ID/Info : UTF-8 Plain Text Duration : 2 h 1 min Bit rate : 84 b/s Count of elements : 2130 Stream size : 75.6 KiB (0%) Title : SDH Language : English Default : No Forced : No
[+] Скриншоты

Всего файлов в раздаче: 1 
Pain.Hustlers.(2023).WEB-DL.2160p.mkv16.45 GB

Похожие раздачи по запросу - Продавцы
2023-10-31 magnet Продавцы боли / Pain Hustlers (2023) WEB-DL 1080p от ExKinoRay | P, P2 5.44 GB ↑ 0 ↓ 0
2023-10-29 magnet Продавцы боли / Pain Hustlers (2023) WEB-DL 1080p | P | Jaskier 5.81 GB ↑ 13 ↓ 0

Кто качает (только для создателя раздачи и модераторов): Локальные пиры отсутствуют

Комментарии


Зарегистрируйтесь чтобы добавить комментарий
Торрент клиент
byTorrent - программа для загрузки торрент-файлов.

Скачать byTorrent.exe (1,5 МБ)

Скачать byTorrent.zip (0,6 МБ)

Поддержи torrent.by
российских рублей
(300 российских рублей это 4$)

Обратная связь rss

End game ©